Kategorie
Ranking
RSS
Programy

Statystyki
Użytkowników:
Zarejestrowanych wczoraj:
Zarejestrowanych dzisiaj:
Torrentów:
Dodanych wczoraj:
Dodanych dzisiaj:
Warezów:
Dodanych wczoraj:
Dodanych dzisiaj:
135,013
40
2
144,167
105
2
11,806
0
0
Ostatnie 30
Popularne
w Styczniu
==Torrent==
Kategoria: BluRay/x264 720p » Dramat historyczny


Dodał: elano64
Data dodania:
2018-09-14 13:07:52
Rozmiar: 1.12 GB
Seedów: 53
Peerów: 19
Pobrano: 67 razy
Kondycja:






Iron Lord - Yaroslav. Tysyachu let nazad [2010] [720p] [BDRIP] [AC3.5.1] [x264] [napisy PL]



tytuł :
Yaroslav. Tysyachu let nazad
Ярослав. Тысячу лет назад
:
reżyseria: Dmitri Korobkin
scenariusz: Marina Koshkina Natalya Nazarova
gatunek: Dramat historyczny
produkcja: Rosja
:



Ruś Kijowska, początek drugiego tysiąclecia. Ziemie rostowskie goreją od wojen międzyplemiennych. W lasach i na drogach grasują grupy rozbójników. Sprzedają oni ludzi Chazarom, którzy spławiają niewolników w dół Wołgi w celach handlowych. Aby powstrzymać ten proceder młody książę Jarosław musi zjednoczyć ziemie i ludy Rostowa. Pokonać wroga można jedynie przezwyciężając etniczne i religijne konflikty wewnątrz księstwa. Na miejscu zniszczonych, rozbójniczych terytoriów, Jarosław zakłada miasto, które później zostanie nazwane jego imieniem.



Aleksandr Ivashkevich ... Yaroslav
Svetlana Chuykina ... Raida
Aleksey Kravchenko ... Harald
Viktor Verzhbitskiy ... Sviatozar
Valeriy Zolotukhin ... Churillo
Pavel Khrulyov ... Vend
Elena Plaksina ... Zhelana
Fedor Shuvalov ... Ilyusha
Boris Tokarev ... Meley
Vladimir Antonik ... Vishata



Video
ID : 1
Format : AVC
Format/Info : Advanced Video Codec
Format profile : High@L4.1
Format settings, CABAC : Yes
Format settings, ReFrames : 4 frames
Codec ID : V_MPEG4/ISO/AVC
Duration : 1h 43mn
Bit rate : 900 Kbps
Width : 1 280 pixels
Height : 544 pixels
Display aspect ratio : 2.35:1
Frame rate mode : Constant
Frame rate : 23.976 (24000/1001) fps
Color space : YUV
Chroma subsampling : 4:2:0
Bit depth : 8 bits
Scan type : Progressive
Bits/(Pixel*Frame) : 0.054
Stream size : 666 MiB (58%)
Writing library : x264 core 142 r2479 dd79a61
Color primaries : BT.709
Transfer characteristics : BT.709
Matrix coefficients : BT.709

Audio
ID : 2
Format : AC-3
Format/Info : Audio Coding 3
Mode extension : CM (complete main)
Format settings, Endianness : Big
Codec ID : A_AC3
Duration : 1h 43mn
Bit rate mode : Constant
Bit rate : 640 Kbps
Channel(s) : 6 channels
Channel positions : Front: L C R, Side: L R, LFE
Sampling rate : 48.0 KHz
Frame rate : 31.250 fps (1536 spf)
Compression mode : Lossy
Stream size : 475 MiB (42%)
Language : Russian
Default : Yes
Forced : No

Text
ID : 3
Format : UTF-8
Codec ID : S_TEXT/UTF8
Codec ID/Info : UTF-8 Plain Text

Trailer
Lista plików Show/Hide [Pokaż/Ukryj]
Trackery
Tracker URLSeedówPeerówPobrań
udp://9.rarbg.com:2750/announce7231
udp://9.rarbg.to:2780/announce7231
udp://9.rarbg.me:2800/announce7231
udp://eddie4.nl:6969/announce7211
udp://shadowshq.eddie4.nl:6969/announce7211
udp://explodie.org:6969/announce6312
udp://tracker.coppersurfer.tk:6969/announce638
udp://tracker.opentrackr.org:1337/announce637
http://auratorrent.pl:8089/announce000
http://tracker.filetracker.pl:8089/announce000
http://tracker.devil-torrents.pl/announce000
udp://tracker.leechers-paradise.org:6969/announce000
http://tracker.torrentyorg.pl/announce000
http://tracker.best-torrents.net:6969/announce000
udp://tracker.best-torrents.net:6969/announce000
http://tracker.electro-torrent.pl/announce000

Komentarze

Brak komentarzy!

Dodawanie komentarza
Komentujesz torrenta:
Iron Lord - Yaroslav. Tysyachu let nazad [2010] [720p] [BDRIP] [AC3.5.1] [x264] [napisy PL]

NAJCZĘŚCIEJ POBIERANE