Kategorie
Ranking
RSS
Programy

Statystyki
Użytkowników:
Zarejestrowanych wczoraj:
Zarejestrowanych dzisiaj:
Torrentów:
Dodanych wczoraj:
Dodanych dzisiaj:
Warezów:
Dodanych wczoraj:
Dodanych dzisiaj:
135,247
92
5
144,495
122
3
11,827
17
5
Ostatnie 30
Popularne
w Styczniu
==Torrent==
Kategoria: BluRay/x264 720p » Dramat historyczny


Dodał: elano64
Data dodania:
2018-10-11 15:49:06
Rozmiar: 1.18 GB
Seedów: 6
Peerów: 6
Pobrano: 33 razy
Kondycja:






The Duelist - Duelyant [2016] [720p] [BDRIP] [AC3.5.1] [x264] [napisy PL]




tytuł :
Duelyant
The Duelist
дуэлянт
:
reżyseria: Sergei Popov
scenariusz: Emmanuil G. Kazakevich Evgeniy Nikishov
gatunek: Dramat, Akcja, Thriller
produkcja: Rosja
:



XIX wiek, St. Petersburg ogarnia fala pojedynków. Dla jednych to sposób na życie, dla innych na przeżycie...



Pyotr Fyodorov ... Yakovlev
Vladimir Mashkov ... Graf Beklemishev
Yuliya Khlynina ... Marfa Tuchkova
Yuri Kolokolnikov ... Basargin (as Yuriy Kolokolnikov)
Aleksandr Mizev ... Ofitser-tyuremshchik



Video
ID : 1
Format : AVC
Format/Info : Advanced Video Codec
Format profile : High@L4.1
Format settings, CABAC : Yes
Format settings, ReFrames : 4 frames
Codec ID : V_MPEG4/ISO/AVC
Duration : 1h 49mn
Bit rate : 900 Kbps
Width : 1 280 pixels
Height : 544 pixels
Display aspect ratio : 2.35:1
Frame rate mode : Constant
Frame rate : 24.000 fps
Color space : YUV
Chroma subsampling : 4:2:0
Bit depth : 8 bits
Scan type : Progressive
Bits/(Pixel*Frame) : 0.054
Stream size : 702 MiB (58%)
Writing library : x264 core 142 r2479 dd79a61
Color range : Limited
Color primaries : BT.709
Transfer characteristics : BT.709
Matrix coefficients : BT.709

Audio
ID : 2
Format : AC-3
Format/Info : Audio Coding 3
Mode extension : CM (complete main)
Format settings, Endianness : Big
Codec ID : A_AC3
Duration : 1h 49mn
Bit rate mode : Constant
Bit rate : 640 Kbps
Channel(s) : 6 channels
Channel positions : Front: L C R, Side: L R, LFE
Sampling rate : 48.0 KHz
Frame rate : 31.250 fps (1536 spf)
Compression mode : Lossy
Stream size : 499 MiB (42%)
Title : DD 5.1 @ 640 kbps - Blu-ray RUS
Language : Russian
Default : Yes
Forced : No

Text
ID : 3
Format : UTF-8
Codec ID : S_TEXT/UTF8
Codec ID/Info : UTF-8 Plain Text

Trailer
Lista plików Show/Hide [Pokaż/Ukryj]
Trackery
Tracker URLSeedówPeerówPobrań
udp://tracker.coppersurfer.tk:6969/announce221
udp://tracker.opentrackr.org:1337/announce221
udp://explodie.org:6969/announce220
udp://9.rarbg.com:2750/announce000
udp://9.rarbg.to:2780/announce000
udp://9.rarbg.me:2800/announce000
udp://eddie4.nl:6969/announce000
udp://shadowshq.eddie4.nl:6969/announce000
http://auratorrent.pl:8089/announce000
http://tracker.filetracker.pl:8089/announce000
http://tracker.devil-torrents.pl/announce000
udp://tracker.leechers-paradise.org:6969/announce000
http://tracker.torrentyorg.pl/announce000
http://tracker.best-torrents.net:6969/announce000
udp://tracker.best-torrents.net:6969/announce000
http://tracker.electro-torrent.pl/announce000

Komentarze

Brak komentarzy!

Dodawanie komentarza
Komentujesz torrenta:
The Duelist - Duelyant [2016] [720p] [BDRIP] [AC3.5.1] [x264] [napisy PL]

NAJCZĘŚCIEJ POBIERANE