Kategorie
Ranking
RSS
Programy

Statystyki
Użytkowników:
Zarejestrowanych wczoraj:
Zarejestrowanych dzisiaj:
Torrentów:
Dodanych wczoraj:
Dodanych dzisiaj:
Warezów:
Dodanych wczoraj:
Dodanych dzisiaj:
109,997
30
31
214,957
92
70
13,743
10
8
Ostatnie 30
Popularne
w Lipcu
==Torrent==
Kategoria: Filmy x265/h265 » Akcja


Dodał: RIAS
Data dodania:
2018-10-30 18:54:55
Rozmiar: 762.68 MB
Seedów: 11
Peerów: 1
Pobrano: 24 razy
Kondycja:









San Andreas (2015) [BRRip x265] [WAR] [ENG]



Produkcja: Australia, USA
Gatunek: Katastroficzny
Premiera: 4 czerwca 2015 (Polska), 21 maja 2015 (świat)
Reżyseria: Brad Peyton
Scenariusz: Carlton Cuse



Na skutek przesunięcia, cieszącego się złą sławą, uskoku San Andreas w Kalifornii dochodzi do trzęsienia ziemi o sile 9 stopni w skali Richtera. Pilot helikoptera ratunkowego (Johnson) i jego żona, z którą nie utrzymuje kontaktów, muszą udać się z Los Angeles do San Francisco, aby uratować swoją jedyną córkę. Okazuje się jednak, że karkołomna podróż na północ jest jedynie początkiem, a gdy oboje myślą, że najgorsze już za nimi... jest tylko gorzej.



★ Dwayne Johnson .... Ray
★ Carla Gugino .... Emma
★ Alexandra Daddario .... Blake
★ Ioan Gruffudd .... Daniel Riddick
★ Archie Panjabi .... Serena
★ Paul Giamatti .... Lawrence
★ Hugo Johnstone-Burt .... Ben
★ Art Parkinson .... Ollie



General
Complete name : San.Andreas.2015.BRRip.x265-WAR\wsand.mkv
Format : Matroska
Format version : Version 4 / Version 2
File size : 755 MiB
Duration : 1 h 54 min
Overall bit rate : 923 kb/s
Encoded date : UTC 2015-09-25 11:04:49
Writing application : mkvmerge v8.3.0 ('Over the Horizon') 64bit
Writing library : libebml v1.3.1 + libmatroska v1.4.2

Video
ID : 1
Format : HEVC
Format/Info : High Efficiency Video Coding
Format profile : Main@L2.1@Main
Codec ID : V_MPEGH/ISO/HEVC
Duration : 1 h 54 min
Bit rate : 601 kb/s
Width : 720 pixels
Height : 304 pixels
Display aspect ratio : 2.35:1
Frame rate mode : Constant
Frame rate : 23.976 (24000/1001) FPS
Color space : YUV
Chroma subsampling : 4:2:0
Bit depth : 8 bits
Bits/(Pixel*Frame) : 0.114
Stream size : 492 MiB (65%)
Writing library : x265 1.7+266-68d089360477:[Windows][GCC 4.9.2][64 bit] 8bit
Encoding settings : wpp / ctu=64 / min-cu-size=8 / max-tu-size=32 / tu-intra-depth=1 / tu-inter-depth=1 / me=1 / subme=2 / merange=57 / no-rect / no-amp / max-merge=2 / temporal-mvp / no-early-skip / rdpenalty=0 / no-tskip / no-tskip-fast / strong-intra-smoothing / no-lossless / no-cu-lossless / no-constrained-intra / no-fast-intra / open-gop / no-temporal-layers / interlace=0 / keyint=250 / min-keyint=23 / scenecut=40 / rc-lookahead=20 / lookahead-slices=0 / bframes=4 / bframe-bias=0 / b-adapt=2 / ref=3 / limit-refs=0 / weightp / no-weightb / aq-mode=1 / aq-strength=1.00 / cbqpoffs=0 / crqpoffs=0 / rd=3 / psy-rd=0.30 / rdoq-level=0 / psy-rdoq=0.00 / signhide / deblock / sao / no-sao-non-deblock / b-pyramid / cutree / rc=2 / pass / bitrate=600 / qcomp=0.60 / qpmin=0 / qpmax=51 / qpstep=4 / cplxblur=20.0 / qblur=0.5 / ipratio=1.40 / pbratio=1.30
Default : Yes
Forced : No

Audio
ID : 2
Format : AAC
Format/Info : Advanced Audio Codec
Format profile : LC
Codec ID : A_AAC
Duration : 1 h 54 min
Bit rate : 320 kb/s
Channel(s) : 6 channels
Channel positions : Front: L C R, Side: L R, LFE
Sampling rate : 48.0 kHz
Frame rate : 46.875 FPS (1024 spf)
Compression mode : Lossy
Delay relative to video : 9 ms
Stream size : 262 MiB (35%)
Language : English
Default : Yes
Forced : No

Trailer
Lista plików Show/Hide [Pokaż/Ukryj]
Trackery
Tracker URLSeedówPeerówPobrań
http://p2p-torrent.ru.tf/announce.php?pid=b25d1a88159deed69a411051
udp://9.rarbg.to:2710/announce201
udp://explodie.org:6969/announce102
udp://tracker.internetwarriors.net:1337/announce101
udp://tracker.coppersurfer.tk:6969/announce101
udp://tracker.torrent.eu.org:451/announce101
udp://open.demonii.si:1337/announce101
udp://ipv4.tracker.harry.lu:80/announce000

Komentarze

Brak komentarzy!

Dodawanie komentarza
Komentujesz torrenta:
San Andreas (2015) [BRRip x265] [WAR] [ENG]

NAJCZĘŚCIEJ POBIERANE