Kategorie
Ranking
RSS
Programy

Statystyki
Użytkowników:
Zarejestrowanych wczoraj:
Zarejestrowanych dzisiaj:
Torrentów:
Dodanych wczoraj:
Dodanych dzisiaj:
Warezów:
Dodanych wczoraj:
Dodanych dzisiaj:
129,553
45
12
135,103
87
30
10,506
0
0
Ostatnie 30
Popularne
w Październiku
==Torrent==
Kategoria: Anime » Anime


Dodał: deckrd
Data dodania:
2018-12-13 11:07:36
Rozmiar: 4.38 GB
Seedów: 0
Peerów: 0
Pobrano: 44 razy
Kondycja:






Kino no Tabi The Beautiful World - Kino's Journey (00-13+movie1-2) [h264.vorbis] [niizk] [Napisy PL]



Typ:
TV
Status:
Zakończone
Data emisji:
08.04.2003
Koniec emisji:
08.07.2003
Liczba odcinków:
13
Studio:
Sentai Filmworks, Genco, A.C.G.T., ADV Films, WOWOW, Studio Wombat,
Długość odcinka:
24min
MPAA:
R



Seria osadzona jest w bliżej nieokreślonym miejscu i czasie. Tereny krain podzielone są na nieduże państwa-miasta, z których większość jest samowystarczalna i nie utrzymuje kontaktu z pozostałymi. Każde z nich rządzi się swoimi, czasem dziwnymi prawami. W takiej scenerii zostaje umieszczona tytułowa bohaterka, Kino, podróżująca razem z mówiącym motocyklem. Na swojej drodze znajduje się w rozmaitych sytuacjach i napotyka różnych ludzi. Kieruje się jednak jedną zasadą: stara się jak najmniej wpływać na otoczenie, zachowując postawę bezstronnego obserwatora.



General
Unique ID : 195588518028696703282800306270911937967 (0x9324FA7620943C669DD48F7182C13DAF)
Complete name : kino_no_tabi_01[h264.vorbis][niizk].mkv
Format : Matroska
Format version : Version 1
File size : 249 MiB
Duration : 24 min 21 s
Overall bit rate mode : Variable
Overall bit rate : 1 429 kb/s
Encoded date : UTC 2007-05-22 18:59:42
Writing application : mkvmerge v2.0.2 ('You're My Flame') built on Feb 21 2007 23:40:55
Writing library : libebml v0.7.7 + libmatroska v0.8.1
Attachments : TIMESI.TTF / Virtue.ttf / LTe52140.ttf / TIMES.TTF / TIMESBD.TTF / TIMESBI.TTF

Video
ID : 1
Format : AVC
Format/INFO : Advanced Video Codec
Format profile : High@L5.1
Format settings : CABAC / 13 Ref Frames
Format settings, CABAC : Yes
Format settings, ReFrames : 13 frames
Codec ID : V_MPEG4/ISO/AVC
Duration : 24 min 21 s
Bit rate : 1 208 kb/s
Nominal bit rate : 1 548 kb/s
Width : 704 pixels
Height : 480 pixels
Display aspect ratio : 16:9
Original display aspect ratio : 3:2
Frame rate mode : Constant
Frame rate : 23.976 FPS
Original frame rate : 29.970 (29970/1000) FPS
Color space : YUV
Chroma subsampling : 4:2:0
Bit depth : 8 bits
Scan type : Progressive
Bits/(Pixel*Frame) : 0.149
Stream size : 210 MiB (85%)
Title : Episode01: Land of Visible Pain
Writing library : x264 core 55
Encoding settings : cabac=1 / ref=10 / deblock=1:0:0 / analyse=0x3:0x133 / me=umh / subme=7 / brdo=1 / mixed_ref=1 / me_range=16 / chroma_me=1 / trellis=0 / 8x8dct=1 / cqm=2 / deadzone=15,6 / chroma_qp_offset=0 / threads=3 / nr=0 / decimate=0 / mbaff=0 / bframes=3 / b_pyramid=1 / b_adapt=1 / b_bias=0 / direct=0 / wpredb=1 / bime=1 / keyint=250 / keyint_min=25 / scenecut=40(pre) / rc=2pass / bitrate=1548 / ratetol=1.0 / rceq='blurCplx^(1-qComp)' / qcomp=0.60 / qpmin=10 / qpmax=51 / qpstep=4 / cplxblur=20.0 / qblur=0.5 / ip_ratio=1.40 / pb_ratio=1.30 / aq=1:1.1:15.0
Default : Yes
Forced : No

Audio
ID : 2
Format : Vorbis
Format settings, Floor : 1
Codec ID : A_VORBIS
Duration : 24 min 21 s
Bit rate mode : Variable
Bit rate : 192 kb/s
Channel(s) : 2 channels
Sampling rate : 48.0 kHz
Compression mode : Lossy
Stream size : 33.4 MiB (13%)
Title : 2.0 VORBIS
Writing application : Made with BeSweet v1.5b31
Writing library : aoTuV r1 (UTC 2005-11-17)
Language : Japanese
Default : Yes
Forced : No
Encoded_Application/Url : http://DSPguru.doom9.org

Text #1
ID : 3
Format : ASS
Codec ID : S_TEXT/ASS
Codec ID/INFO : Advanced Sub Station Alpha
Compression mode : Lossless
Title : ass
Language : English
Default : Yes
Forced : No

Text #2
ID : 4
Format : UTF-8
Codec ID : S_TEXT/UTF8
Codec ID/INFO : UTF-8 Plain Text
Title : srt
Language : English
Default : No
Forced : No

UWAGA!!!
W Torrencie są zawarte czcionki, które należy zainstalować w systemie (Windows lub Linux) żeby napisy się poprawnie wyświetlały.
Najlepiej używać SMPlayera do odtwarzania na komputerze.

Lista plików Show/Hide [Pokaż/Ukryj]
Trackery
Tracker URLSeedówPeerówPobrań
udp://tracker.coppersurfer.tk:6969/announce000
udp://tracker.torrent.eu.org:451/announce000
udp://tracker.vanitycore.co:6969/announce000
udp://tracker.iamhansen.xyz:2000/announce000
udp://tracker.uw0.xyz:6969/announce000
udp://open.demonii.si:1337/announce000
udp://open.stealth.si:80/announce000
udp://retracker.lanta-net.ru:2710/announce000
udp://tracker.port443.xyz:6969/announce000
udp://bt.xxx-tracker.com:2710/announce000
udp://tracker.opentrackr.org:1337/announce000
udp://thetracker.org:80/announce000
udp://denis.stalker.upeer.me:6969/announce000
udp://ipv4.tracker.harry.lu:80/announce000
udp://explodie.org:6969/announce000
udp://tracker1.itzmx.com:8080/announce000
udp://exodus.desync.com:6969/announce000
udp://9.rarbg.to:2710/announce000
udp://tracker.internetwarriors.net:1337/announce000
udp://zephir.monocul.us:6969/announce000

Komentarze

Brak komentarzy!

Dodawanie komentarza
Komentujesz torrenta:
Kino no Tabi The Beautiful World - Kino's Journey (00-13+movie1-2) [h264.vorbis] [niizk] [Napisy PL]

NAJCZĘŚCIEJ POBIERANE