Kategorie
Ranking
RSS
Programy

Statystyki
Użytkowników:
Zarejestrowanych wczoraj:
Zarejestrowanych dzisiaj:
Torrentów:
Dodanych wczoraj:
Dodanych dzisiaj:
Warezów:
Dodanych wczoraj:
Dodanych dzisiaj:
129,332
71
0
134,729
107
3
10,484
0
0
Ostatnie 30
Popularne
w Październiku
==Torrent==
Kategoria: BluRay/x264 720p » Fantasy


Dodał: elano64
Data dodania:
2019-03-19 06:52:38
Rozmiar: 1.09 GB
Seedów: 116
Peerów: 67
Pobrano: 95 razy
Kondycja:






Gogol. Nachalo - Гоголь. Начало [2017] [720p] [BDRIP] [AC3.5.1] [x264] [napisy PL]



Gogol. Nachalo
Гоголь. Начало
:
reżyseria: Egor Baranov
scenariusz: Tikhon Kornev Kim Belov
gatunek: Horror, Kryminał, Przygodowy
produkcja: Rosja
premiera: 31 sierpnia 2017 (świat)
:



Kozacy, czarownice, syreny, utopione kobiety i inni mieszkańcy Dykanki spotykają się twarzą w twarz ze swoim twórcą Nikołajem Gogolem, młodym petersburskim urzędnikiem, który cierpi na tajemnicze ataki i może komunikować się z postaciami z innego świata. Wraz ze swoim szefem, genialnym śledczym Jakowem Pietrowiczem, przybył do Połtawy aby zbadać tajemnicze morderstwa dziewcząt. Tutaj spotyka swoją miłość, która ma odegrać fatalną rolę w jego losie. Ale czy młody pisarz będzie miał dość siły ducha, aby oprzeć się niewyobrażalnemu? Wszakże według pogłosek, które aktywnie rozprzestrzeniają przestraszoni mieszkańcy, za zbrodniami stoi nikt inny niż sam Diabeł w przebraniu czarnego jeźdźca.



Margarita Adayeva ... Varvara
Sergey Badyuk ... Vakula
Yuliya Frants ... Oksana
Oleg Menshikov ... Guro Yakov Petrovich
Alexander Petrov ... Gogol Nikolai Vasilievich
Evgeniy Stychkin ... Binkh Alexander Christophorovich
Artyom Tkachenko ... Danishevskiy Alexey
Taisiya Vilkova ... Danishevskaya Elisaveta Andreevna



Video
ID : 1
Format : AVC
Format/Info : Advanced Video Codec
Format profile : High@L4.1
Format settings, CABAC : Yes
Format settings, ReFrames : 4 frames
Codec ID : V_MPEG4/ISO/AVC
Duration : 1h 46mn
Bit rate : 1 000 Kbps
Width : 1 280 pixels
Height : 528 pixels
Display aspect ratio : 2.40:1
Frame rate mode : Constant
Frame rate : 24.000 fps
Color space : YUV
Chroma subsampling : 4:2:0
Bit depth : 8 bits
Scan type : Progressive
Bits/(Pixel*Frame) : 0.062
Stream size : 764 MiB (69%)
Writing library : x264 core 142 r2479 dd79a61
Color primaries : BT.709
Transfer characteristics : BT.709
Matrix coefficients : BT.709

Audio
ID : 2
Format : AC-3
Format/Info : Audio Coding 3
Mode extension : CM (complete main)
Format settings, Endianness : Big
Codec ID : A_AC3
Duration : 1h 46mn
Bit rate mode : Constant
Bit rate : 448 Kbps
Channel(s) : 6 channels
Channel positions : Front: L C R, Side: L R, LFE
Sampling rate : 48.0 KHz
Frame rate : 31.250 fps (1536 spf)
Compression mode : Lossy
Stream size : 342 MiB (31%)
Title : DD 5.1 @ 640 kbps - Blu-ray RUS
Language : Russian
Default : Yes
Forced : No

Text
ID : 3
Format : UTF-8
Codec ID : S_TEXT/UTF8
Codec ID/Info : UTF-8 Plain Text

Trailer
Lista plików Show/Hide [Pokaż/Ukryj]
Trackery
Tracker URLSeedówPeerówPobrań
udp://tracker.leechers-paradise.org:6969/announce11757
udp://tracker.internetwarriors.net:1337/announce11748
udp://9.rarbg.com:2770/announce116250
udp://9.rarbg.to:2710/announce116250
udp://9.rarbg.me:2790/announce116250
udp://tracker.coppersurfer.tk:6969/announce11677
udp://tracker.pirateparty.gr:6969/announce11677
udp://explodie.org:6969/announce10743
udp://exodus.desync.com:6969/announce10647
udp://tracker.opentrackr.org:1337/announce10555
http://tracker.electro-torrent.pl/announce7541
http://tracker.torrentyorg.pl/announce205

Komentarze

Brak komentarzy!

Dodawanie komentarza
Komentujesz torrenta:
Gogol. Nachalo - Гоголь. Начало [2017] [720p] [BDRIP] [AC3.5.1] [x264] [napisy PL]

NAJCZĘŚCIEJ POBIERANE