Kategorie
Ranking
RSS
Programy

Statystyki
Użytkowników:
Zarejestrowanych wczoraj:
Zarejestrowanych dzisiaj:
Torrentów:
Dodanych wczoraj:
Dodanych dzisiaj:
Warezów:
Dodanych wczoraj:
Dodanych dzisiaj:
107,874
37
2
210,735
120
4
12,474
41
0
Ostatnie 30
Popularne
w Maju
==Torrent==
Kategoria: TV/Seriale » Fantasy


Dodał: Lukarusi
Data dodania:
2019-04-23 18:10:01
Rozmiar: 3.45 GB
Seedów: 416
Peerów: 77
Pobrano: 137 razy
Kondycja:









Game of Thrones S08E02 - A Knight of the Seven Kingdoms [1080p.WEB-DL.H.264.AC3] [Lektor PL] [ENG+Napisy PL]



produkcja: USA
gatunek: Dramat, Fantasy, Przygodowy
reżyseria: Alan Taylor, Mark Mylod, Jeremy Podeswa, Matt Shakman
scenariusz: David Benioff, D.B. Weiss
zdjęcia: Jonathan Freeman, Robert McLachlan
muzyka: Ramin Djawadi
czas trwania: ok. 58 min.



Walka o Żelazny Tron się zaostrza. Każdy z mieszkańców krainy Westeros pragnie objąć władzę nad siedmioma królestwami. Wszystkie rody, od knującego intrygi Południa, przez barbarzyński Wschód i mroźną Północ, toczą brutalną walkę o władzę. Każdy z zaangażowanych w rywalizację wie, że nie może kierować się sentymentami, jeśli chce zwyciężyć. Dla wielu z nich dążenie do objęcia tronu jest także sposobem na przetrwanie.



Peter Dinklage - Tyrion Lannister
Nikolaj Coster-Waldau - Jaime Lannister
Lena Headey - Cersei Lannister
Emilia Clarke - Daenerys Targaryen
Kit Harington - Jon Snow
Aidan Gillen - Petyr Baelish
Liam Cunningham - Davos Seaworth
Indira Varma - Ellaria Sand
Conleth Hill - Varys
John Bradley - Samwell Tarly
Sophie Turner - Sansa Stark
Maisie Williams - Arya Stark



Format : Matroska
Format version : Version 4 / Version 2
File size : 3.45 GiB
Duration : 57 min 56 s
Overall bit rate mode : Variable
Overall bit rate : 8 530 kb/s
Encoded date : UTC 2019-04-23 15:54:21

Video
ID : 1
Format : AVC
Format/Info : Advanced Video Codec
Format profile : High@L4
Format settings : CABAC / 4 Ref Frames
Format settings, CABAC : Yes
Format settings, ReFrames : 4 frames
Codec ID : V_MPEG4/ISO/AVC
Duration : 57 min 56 s
Bit rate mode : Variable
Bit rate : 7 760 kb/s
Maximum bit rate : 12.0 Mb/s
Width : 1 920 pixels
Height : 1 080 pixels
Display aspect ratio : 16:9
Frame rate mode : Constant
Frame rate : 23.976 (24000/1001) FPS
Color space : YUV
Chroma subsampling : 4:2:0
Bit depth : 8 bits
Scan type : Progressive
Bits/(Pixel*Frame) : 0.156
Stream size : 3.14 GiB (91%)
Default : Yes
Forced : Yes
Color range : Limited
Color primaries : BT.709
Transfer characteristics : BT.709
Matrix coefficients : BT.709

Audio 1
ID : 2
Format : AC-3
Format/Info : Audio Coding 3
Commercial name : Dolby Digital
Codec ID : A_AC3
Duration : 57 min 56 s
Bit rate mode : Constant
Bit rate : 384 kb/s
Channel(s) : 2 channels
Channel layout : L R
Sampling rate : 48.0 kHz
Frame rate : 31.250 FPS (1536 SPF)
Bit depth : 16 bits
Compression mode : Lossy
Stream size : 159 MiB (5%)
Language : Polish
Service kind : Complete Main
Default : Yes
Forced : Yes

Audio 2
ID : 3
Format : AC-3
Format/Info : Audio Coding 3
Commercial name : Dolby Digital
Codec ID : A_AC3
Duration : 57 min 56 s
Bit rate mode : Constant
Bit rate : 384 kb/s
Channel(s) : 6 channels
Channel layout : L R C LFE Ls Rs
Sampling rate : 48.0 kHz
Frame rate : 31.250 FPS (1536 SPF)
Bit depth : 16 bits
Compression mode : Lossy
Stream size : 159 MiB (5%)
Language : English
Service kind : Complete Main
Default : No
Forced : No

Text 1
ID : 4
Format : UTF-8
Codec ID : S_TEXT/UTF8
Codec ID/Info : UTF-8 Plain Text
Duration : 56 min 7 s
Bit rate : 51 b/s
Count of elements : 543
Stream size : 21.1 KiB (0%)
Title : Grupa Hatak
Language : Polish
Default : No
Forced : No

Text 2
ID : 5
Format : UTF-8
Codec ID : S_TEXT/UTF8
Codec ID/Info : UTF-8 Plain Text
Duration : 55 min 54 s
Bit rate : 43 b/s
Count of elements : 682
Stream size : 17.9 KiB (0%)
Title : HBO Orginal
Language : Polish
Default : No
Forced : No

Lista plików Show/Hide [Pokaż/Ukryj]
Trackery
Tracker URLSeedówPeerówPobrań
http://tracker1.itzmx.com:8080/announce15731107
udp://tracker.pomf.se:80/announce34710
udp://tracker.openbittorrent.com:80/announce34710
udp://sugoi.pomf.se:80/announce34710
udp://tracker.leechers-paradise.org:6969/announce346162
udp://9.rarbg.com:2740/announce335522
udp://9.rarbg.me:2790/announce335522
udp://exodus.desync.com:6969/announce315181
http://tracker.torrentyorg.pl/announce26491
http://tracker.tfile.me/announce000
http://tracker.city9x.com:2710/announce000
http://agusiq-torrents.pl:6969/announce000
http://tracker.filetracker.pl:8089/announce000
udp://poloniumsurfer.tk:6969/announce000
udp://torrent.gresille.org:80/announce000
udp://eddie4.nl:6969/announce000
udp://tracker.glotorrents.com:6969/announce000
udp://shadowshq.eddie4.nl:6969/announce000
http://mgtracker.org:2710/announce000
udp://tracker.publicbt.com/announce000
http://retracker.omsk.ru:2710/announce000
http://tracker.vanitycore.co:6969/announce000
udp://tracker.istole.it:80/announce000
udp://tracker.prq.to/announce000
udp://tracker.torrentbay.to:6969/announce000
udp://t1.pow7.com/announce000
udp://10.rarbg.com/announce000

Komentarze

Brak komentarzy!

Dodawanie komentarza
Komentujesz torrenta:
Game of Thrones S08E02 - A Knight of the Seven Kingdoms [1080p.WEB-DL.H.264.AC3] [Lektor PL] [ENG+Napisy PL]

NAJCZĘŚCIEJ POBIERANE