Kategorie
Ranking
RSS
Programy

Statystyki
Użytkowników:
Zarejestrowanych wczoraj:
Zarejestrowanych dzisiaj:
Torrentów:
Dodanych wczoraj:
Dodanych dzisiaj:
Warezów:
Dodanych wczoraj:
Dodanych dzisiaj:
108,955
33
3
213,011
69
9
13,203
21
0
Ostatnie 30
Popularne
w Czerwcu
==Torrent==
Kategoria: Filmy IVO » Sci-Fi


Dodał: ziom999
Data dodania:
2019-06-09 14:08:18
Rozmiar: 2.21 GB
Seedów: 378
Peerów: 132
Pobrano: 315 razy
Kondycja:









Godzilla II Król potworów . Godzilla King of the Monsters (2019)[720p.HDCAM][x264-Spocony22] [LEKTOR PL IVO]



reżyseria: Michael Dougherty
scenariusz: Zach ShieldsMichael Dougherty
gatunek: Akcja,Sci-Fi
produkcja: USA
premiera: 14 czerwca 2019 (Polska) 29 maja 2019 (świat)



https://www.filmweb.pl/film/Godzilla+II%3A+Król+potworów-2019-720753

https://www.imdb.com/title/tt3741700

https://www.youtube.com/watch?v=QFxN2oDKk0E



Po pojawieniu się nowego zagrożenia Król Potworów powraca, by ponownie przywrócić w przyrodzie równowagę.



Kyle Chandler, Vera Farmiga, Millie Bobby Brown



Format : Matroska
Format version : Version 4
File size : 2.21 GiB
Duration : 2 h 1 min
Overall bit rate : 2 600 kb/s
Writing application : Lavf57.25.100
Writing library : Lavf57.25.100

Video
ID : 1
Format : MPEG-4 Visual
Format profile : Simple@L1
Format settings, BVOP : No
Format settings, QPel : No
Format settings, GMC : No warppoints
Format settings, Matrix : Default (H.263)
Codec ID : V_MPEG4/ISO/ASP
Codec ID/Info : Advanced Simple Profile
Duration : 2 h 1 min
Bit rate : 2 356 kb/s
Width : 1 360 pixels
Height : 768 pixels
Display aspect ratio : 16:9
Frame rate mode : Constant
Frame rate : 30.000 FPS
Color space : YUV
Chroma subsampling : 4:2:0
Bit depth : 8 bits
Scan type : Progressive
Compression mode : Lossy
Bits/(Pixel*Frame) : 0.075
Stream size : 2.00 GiB (91%)
Writing library : Lavc57.24.102
Default : Yes
Forced : No

Audio
ID : 2
Format : MPEG Audio
Format version : Version 1
Format profile : Layer 3
Format settings : Joint stereo / MS Stereo
Codec ID : A_MPEG/L3
Codec ID/Hint : MP3
Duration : 2 h 1 min
Bit rate mode : Constant
Bit rate : 192 kb/s
Channel(s) : 2 channels
Sampling rate : 44.1 kHz
Compression mode : Lossy
Stream size : 167 MiB (7%)
Default : Yes
Forced : No

Trailer
Lista plików Show/Hide [Pokaż/Ukryj]
Trackery
Tracker URLSeedówPeerówPobrań
udp://opentrackr.org:1337/announce6523517
udp://tracker.opentrackr.org:1337/announce6523517
udp://tracker.openbittorrent.com:80/announce651910
udp://tracker.coppersurfer.tk:6969/announce6324569
udp://9.rarbg.me:2710/announce552099
udp://explodie.org:6969/announce4920291
udp://exodus.desync.com:6969/announce16363

Komentarze
<< Poprzednia      Następna >>
1 - 10
  • Napisano dnia 2019-06-11 15:10:05 GMT
    aic250222
    Seed please
  • Napisano dnia 2019-06-11 15:22:14 GMT
    ziom999
    U mnie seed był 9-10 .06 już tego nie mam na kompie
  • Napisano dnia 2019-06-11 17:54:04 GMT
    blaha40
    poco wstawiasz jak 0 idzie
  • Napisano dnia 2019-06-11 18:09:08 GMT
    ziom999
    Pretensje do tych co pobrali i zwiali nie do mnie a pobrano 175 razy
  • Napisano dnia 2019-06-11 18:14:50 GMT
    MarcoPF
    Poseeduj trochę to po wysyłam
  • Napisano dnia 2019-06-11 18:23:01 GMT
    varior12
    u mnie idzie po 10-11 MB...4 MINUTKI I JEST...
  • Napisano dnia 2019-06-11 19:01:06 GMT
    ziom999
    nie mam już tego na kompie
  • Napisano dnia 2019-06-11 19:45:36 GMT
    niko1980
    16mb\s do 73 %  i hamuje do 8kb\s
  • Napisano dnia 2019-06-12 10:59:25 GMT
    herbata121
    dziękuję
  • Napisano dnia 2019-06-16 11:15:35 GMT
    STULEJARZ
    Super dziękuje ci bardzo bardzo dziękuje będzie oglądane
Przeglądaj
1 - 10
<< Poprzednia      Następna >>
Dodawanie komentarza
Komentujesz torrenta:
Godzilla II Król potworów . Godzilla King of the Monsters (2019)[720p.HDCAM][x264-Spocony22] [LEKTOR PL IVO]

NAJCZĘŚCIEJ POBIERANE