Kategorie
Ranking
RSS
Programy

Statystyki
Użytkowników:
Zarejestrowanych wczoraj:
Zarejestrowanych dzisiaj:
Torrentów:
Dodanych wczoraj:
Dodanych dzisiaj:
Warezów:
Dodanych wczoraj:
Dodanych dzisiaj:
111,141
66
2
103,162
122
11
5,730
14
0
Ostatnie 30
Popularne
w Grudniu
==Torrent==
Kategoria: Filmy XviD 720p » Animowany


Dodał: kempes84
Data dodania:
2019-07-17 14:29:56
Rozmiar: 2.68 GB
Seedów: 48
Peerów: 4
Pobrano: 80 razy
Kondycja:









UglyDolls *2019* [720p] [WEB-DL] [XviD] [AC3] [FGT] [ENG]



Produkcja: USA
Gatunek: Animacja, Komedia, Przygodowy
Premiera: 31 maja 2019 (Polska), 1 maja 2019 (świat)
Reżyseria: Kelly Asbury
Scenariusz: Alison Peck



Paskudy są miłe, bystre i życzliwe, ale nietypowa uroda wyklucza je ze świata pięknych lalek, które mają nieść radość dzieciom. Pogodzone z losem wiodą spokojny żywot w położonej na uboczu mieścinie Uglyville. Dla małej zadziornej Moxy to jednak za mało.  Ona pragnie poznać świat i zrozumieć, dlaczego Paskudom nie dane jest trafiać do rąk dzieciaków. Razem z grupą przyjaciół przedostaje się do skostniałego, pełnego reguł miasta lalek idealnych. Wszystko tu jest eleganckie, symetryczne, ale zimne i pozbawione uroku.  Czy poczucie humoru i niespożyta energia Moxy może to zmienić i udowodnić, że nie trzeba być idealnym, by być wspaniałym?!  Czy Paskudy mają szansę spełnić swoje marzenie i nieść radość dzieciom? No raczej, bo przecież paskudne jest cudne!



★ Karolina Czarnecka .... Moxy
★ Olga Szomańska .... Mandy
★ Maciej Miecznikowski .... Ox
★ Joanna Kołaczkowska .... Trusia
★ Igor Kwiatkowski .... Babo
★ Krzysztof Szczepaniak .... Fuksio
★ Maria Tyszkiewicz .... Majka
★ Iga Krefft .... Kitty



Video
ID : 0
Format : MPEG-4 Visual
Format profile : Simple@L5
Format settings, BVOP : No
Format settings, QPel : No
Format settings, GMC : No warppoints
Format settings, Matrix : Default (H.263)
Codec ID : XVID
Codec ID/Hint : XviD
Duration : 1 h 27 min
Bit rate : 3 993 kb/s
Width : 1 280 pixels
Height : 694 pixels
Display aspect ratio : 1.85:1
Frame rate : 23.976 (24000/1001) FPS
Color space : YUV
Chroma subsampling : 4:2:0
Bit depth : 8 bits
Scan type : Progressive
Compression mode : Lossy
Bits/(Pixel*Frame) : 0.187
Stream size : 2.44 GiB (91%)
Writing library : Lavc58.1.100

Audio
ID : 1
Format : AC-3
Format/Info : Audio Coding 3
Commercial name : Dolby Digital
Codec ID : 2000
Duration : 1 h 27 min
Bit rate mode : Constant
Bit rate : 384 kb/s
Channel(s) : 6 channels
Channel layout : L R C LFE Ls Rs
Sampling rate : 48.0 kHz
Frame rate : 31.250 FPS (1536 SPF)
Bit depth : 16 bits
Compression mode : Lossy
Stream size : 240 MiB (9%)
Alignment : Aligned on interleaves
Interleave, duration : 42 ms (1.00 video frame)
Interleave, preload duration : 512 ms
Service kind : Complete Main

Trailer
Lista plików Show/Hide [Pokaż/Ukryj]
Trackery
Tracker URLSeedówPeerówPobrań
udp://9.rarbg.to:2720/announce2422
udp://9.rarbg.me:2790/announce2422
http://tracker.trackerfix.com:80/announce000

Komentarze

Brak komentarzy!

Dodawanie komentarza
Komentujesz torrenta:
UglyDolls *2019* [720p] [WEB-DL] [XviD] [AC3] [FGT] [ENG]

NAJCZĘŚCIEJ POBIERANE