Kategorie
Ranking
RSS
Programy

Statystyki
Użytkowników:
Zarejestrowanych wczoraj:
Zarejestrowanych dzisiaj:
Torrentów:
Dodanych wczoraj:
Dodanych dzisiaj:
Warezów:
Dodanych wczoraj:
Dodanych dzisiaj:
129,332
71
0
134,727
107
1
10,484
0
0
Ostatnie 30
Popularne
w Październiku
==Torrent==
Kategoria: Muzyka » Country/Western


Dodał: Beatrix
Data dodania:
2020-04-27 08:50:34
Rozmiar: 1.01 GB
Seedów: 46
Peerów: 17
Pobrano: 6 razy
Kondycja:






Maddie and Tae - The Way It Feels (2020) [96kHz - 24bit]



Quality-Lossless
Release-2020
Duration-00:48:52
File Size-1.08 Gb
Genre-Country
Cover Size-1400px

----------------------------------------------------------------------------------------------
Analyzed: The Way It Feels / Artist: Maddie & Tae
----------------------------------------------------------------------------------------------
DR Peak RMS Duration Title [codec]
----------------------------------------------------------------------------------------------



DR7 -0.21 dB -9.53 dB 3:28 01 - Everywhere I'm Goin' [flac]
DR7 -0.26 dB -9.22 dB 2:33 02 - Bathroom Floor [flac]
DR6 -0.26 dB -8.22 dB 3:00 03 - My Man [flac]
DR7 -0.00 dB -8.76 dB 3:25 04 - Tourist In This Town [flac]
DR7 -0.28 dB -9.55 dB 3:43 05 - Drunk Or Lonely [flac]
DR8 -0.19 dB -10.58 dB 3:37 06 - One Heart To Another [flac]
DR7 -0.11 dB -9.29 dB 3:04 07 - Trying On Rings [flac]
DR7 -0.17 dB -10.06 dB 3:25 08 - Write A Book [flac]
DR9 -0.29 dB -10.82 dB 3:20 09 - Water In His Wine Glass [flac]
DR8 -0.27 dB -10.27 dB 3:08 10 - Die From A Broken Heart [flac]
DR8 -0.12 dB -9.30 dB 3:29 11 - Ain't There Yet [flac]
DR7 -0.26 dB -10.76 dB 2:58 12 - Lay Here With Me [flac]
DR7 -0.20 dB -9.40 dB 3:08 13 - Friends Don't [flac]
DR7 -0.22 dB -8.87 dB 3:20 14 - I Don't Need To Know [flac]
DR6 -0.19 dB -8.86 dB 3:08 15 - New Dog Old Tricks [flac]
----------------------------------------------------------------------------------------------



Number of files: 15
Official DR value: DR7

Sampling rate: 96000 Hz
Average bitrate: 2937kbs
Bits per sample: 24 bit

Lista plików Show/Hide [Pokaż/Ukryj]
Trackery
Tracker URLSeedówPeerówPobrań
udp://tracker.leechers-paradise.org:6969/announce8390
udp://tracker.pirateparty.gr:6969/announce7592
udp://tracker.coppersurfer.tk:6969/announce7592
udp://tracker.opentrackr.org:1337/announce7190
udp://exodus.desync.com:6969/announce5167
udp://9.rarbg.com:2710/announce41339
udp://tracker.iamhansen.xyz:2000/announce4170
http://explodie.org:6969/announce400
udp://tracker.piratepublic.com:1337/announce000
http://p4p.arenabg.com:1337/announce000
udp://tracker.zer0day.to:1337/announce000
udp://open.demonii.si:1337/announce000

Komentarze

Brak komentarzy!

Dodawanie komentarza
Komentujesz torrenta:
Maddie and Tae - The Way It Feels (2020) [96kHz - 24bit]

NAJCZĘŚCIEJ POBIERANE