Kategorie
Ranking
RSS
Programy

Statystyki
Użytkowników:
Zarejestrowanych wczoraj:
Zarejestrowanych dzisiaj:
Torrentów:
Dodanych wczoraj:
Dodanych dzisiaj:
Warezów:
Dodanych wczoraj:
Dodanych dzisiaj:
129,332
71
0
134,729
107
3
10,484
0
0
Ostatnie 30
Popularne
w Październiku
==Torrent==
Kategoria: BluRay/x264 1080p » Wojenny


Dodał: feldfebel1
Data dodania:
2020-08-20 13:10:56
Rozmiar: 1.76 GB
Seedów: 106
Peerów: 34
Pobrano: 176 razy
Kondycja:






Enemy Lines *2020* [1080p] [WEBRiP] [x264] [Napisy PL]



produkcja: Wielka Brytania
gatunek: Wojenny
premiera: 24 kwietnia 2020 (świat)
reżyseria: Anders Banke
wersja: [1080p] [Napisy PL] [IMDb 5,0/10] [MPEG-4] []1.76 GB [1h 32min]




II wojna światowa. Grupa żołnierzy zostaje wysłana w głąb III Rzeszy, by uwolnić pracującego dla Niemców naukowca.




Paweł Deląg ... Dr Fabien
Ed Westwick ... Kaminski
John Hannah ... Colonel Preston
Tom Wisdom ... Davidson
Corey Johnson ... Generał McCloud
Vladimir Epifantsev ... Petrov
Gary Grant ... Waites
Daniel Jillings ... Cooper




ID : 1
Format : AVC
Format/Info : Advanced Video Codec
Format profile : High@L4.1
Format settings : CABAC / 4 Ref Frames
Format settings, CABAC : Yes
Format settings, Reference : 4 frames
Codec ID : avc1
Codec ID/Info : Advanced Video Coding
Duration : 1 h 32 min
Bit rate : 2 500 kb/s
Width : 1 920 pixels
Height : 800 pixels
Display aspect ratio : 2.40:1
Frame rate mode : Constant
Frame rate : 24.000 FPS
Color space : YUV
Chroma subsampling : 4:2:0
Bit depth : 8 bits
Scan type : Progressive
Bits/(Pixel*Frame) : 0.068
Stream size : 1.61 GiB


Audio

ID : 2
Format : AAC LC
Format/Info : Advanced Audio Codec Low Complexity
Codec ID : mp4a-40-2
Duration : 1 h 32 min
Duration_LastFrame : -11 ms
Bit rate mode : Constant
Bit rate : 224 kb/s
Channel(s) : 6 channels
Channel layout : C L R Ls Rs LFE
Sampling rate : 48.0 kHz
Frame rate : 46.875 FPS (1024 SPF)
Compression mode : Lossy
Stream size : 148 MiB (8%)
Language : English

Lista plików Show/Hide [Pokaż/Ukryj]
Trackery
Tracker URLSeedówPeerówPobrań
udp://tracker.openbittorrent.com:80/announce531768
udp://tracker.opentrackr.org:1337/announce531768
Podobne Pliki

Komentarze

Brak komentarzy!

Dodawanie komentarza
Komentujesz torrenta:
Enemy Lines *2020* [1080p] [WEBRiP] [x264] [Napisy PL]

NAJCZĘŚCIEJ POBIERANE