Kategorie
Ranking
RSS
Programy

Statystyki
Użytkowników:
Zarejestrowanych wczoraj:
Zarejestrowanych dzisiaj:
Torrentów:
Dodanych wczoraj:
Dodanych dzisiaj:
Warezów:
Dodanych wczoraj:
Dodanych dzisiaj:
131,864
41
38
139,063
111
54
11,052
20
21
Ostatnie 30
Popularne
w Grudniu
==Torrent==
Kategoria: Muzyka » Rock


Dodał: Beatrix
Data dodania:
2020-10-22 22:01:27
Rozmiar: 2.51 GB
Seedów: 291
Peerów: 139
Pobrano: 28 razy
Kondycja:






Michael Jackson - Bad + Dangerous (24bit-96kHz) [FLAC]



Michael Jackson
Bad (1987) + Dangerous (1991)
FLAC LOSSLESS Vinyl 24bit-96kHz


allmusic.com...

Michael Jackson wasn't merely the biggest pop star of his era, shaping the sound and style of the '70s and '80s; he was one of the defining stars of the 20th century, a musician who changed the contours of American culture. A preternaturally gifted singer and dancer, Jackson first rose to stardom in 1969 as the 11-year-old frontman for his family's band, the Jackson 5.

Bad -- the eagerly-anticipated 1987 sequel to Thriller, co-produced once again with Quincy Jones -- kept him in the stratosphere , generating five number one singles on the Billboard charts and selling 30 million copies internationally, two thirds of which were outside of the US. Jackson parted ways with Jones for 1991's Dangerous.


foobar2000 1.4.3 / Dynamic Range Meter 1.1.1
log date: 2020-10-18 17:15:13

--------------------------------------------------------------------------------
Analyzed: Michael Jackson / Bad
--------------------------------------------------------------------------------

DR Peak RMS Duration Track
--------------------------------------------------------------------------------
DR15 -0.56 dB -16.79 dB 4:07 01-Bad
DR14 -0.30 dB -17.27 dB 5:00 02-The Way You Make Me Feel
DR14 -1.53 dB -18.24 dB 4:05 03-Speed Demon
DR13 -3.53 dB -19.66 dB 3:50 04-Liberian Girl
DR13 -3.68 dB -19.42 dB 4:07 05-Just Good Friends
DR14 -1.17 dB -16.83 dB 3:55 06-Another Part Of Me
DR13 -1.81 dB -16.76 dB 5:19 07-Man In The Mirror
DR13 -1.30 dB -18.25 dB 4:26 08-I Just Can't Stop Loving You
DR12 -1.37 dB -17.10 dB 4:53 09-Dirty Diana
DR14 -0.35 dB -16.82 dB 4:20 10-Smooth Criminal

Number of tracks: 10
Official DR value: DR14

Samplerate: 96000 Hz
Channels: 2
Bits per sample: 24
Bitrate: 3073 kbps
Codec: FLAC
================================================================================


foobar2000 1.4.3 / Dynamic Range Meter 1.1.1
log date: 2020-10-17 21:17:12

--------------------------------------------------------------------------------
Analyzed: Michael Jackson / Dangerous
--------------------------------------------------------------------------------

DR Peak RMS Duration Track
--------------------------------------------------------------------------------



DR15 -0.98 dB -18.23 dB 5:39 01-Jam
DR14 -0.70 dB -18.24 dB 5:25 02-Why You Wanna Trip On Me
DR14 -1.09 dB -18.23 dB 6:32 03-In The Closet
DR14 -0.70 dB -17.74 dB 3:43 04-She Drives Me Wild
DR14 -1.56 dB -17.32 dB 4:00 05-Remember The Time
DR15 -1.37 dB -17.80 dB 5:01 06-Can't Let Her Get Away
DR14 -1.52 dB -18.85 dB 6:27 07-Heal The World
DR14 -1.76 dB -18.28 dB 4:17 08-Black Or White
DR15 -0.70 dB -17.69 dB 6:35 09-Who Is It
DR12 -2.33 dB -16.48 dB 5:34 10-Give In To Me
DR14 -3.06 dB -22.08 dB 7:40 11-Will You Be There
DR14 -1.86 dB -18.59 dB 5:58 12-Keep The Faith
DR12 -5.89 dB -24.24 dB 3:23 13-Gone Too Soon
DR15 -0.70 dB -17.95 dB 7:01 14-Dangerous

Number of tracks: 14
Official DR value: DR14

Samplerate: 96000 Hz
Channels: 2
Bits per sample: 24
Bitrate: 2958 kbps
Codec: FLAC

Lista plików Show/Hide [Pokaż/Ukryj]
Trackery
Tracker URLSeedówPeerówPobrań
http://tracker.opentrackr.org:1337/announce61271070
udp://tracker.openbittorrent.com:80/announce61271070
udp://tracker.internetwarriors.net:1337/announce4618575
udp://tracker.torrent.eu.org:451/announce4120542
udp://exodus.desync.com:6969/announce3718114
udp://tracker.leechers-paradise.org:6969/announce2313347
udp://explodie.org:6969/announce22160
udp://denis.stalker.upeer.me:6969/announce000
udp://tracker.coppersurfer.tk:6969/announce000
Podobne Pliki

Komentarze

Brak komentarzy!

Dodawanie komentarza
Komentujesz torrenta:
Michael Jackson - Bad + Dangerous (24bit-96kHz) [FLAC]

NAJCZĘŚCIEJ POBIERANE