Kategorie
Ranking
RSS
Programy

Statystyki
Użytkowników:
Zarejestrowanych wczoraj:
Zarejestrowanych dzisiaj:
Torrentów:
Dodanych wczoraj:
Dodanych dzisiaj:
Warezów:
Dodanych wczoraj:
Dodanych dzisiaj:
131,878
41
52
139,068
111
59
11,052
20
21
Ostatnie 30
Popularne
w Grudniu
==Torrent==
Kategoria: Muzyka » Rock


Dodał: Beatrix
Data dodania:
2020-10-26 00:41:43
Rozmiar: 1.53 GB
Seedów: 650
Peerów: 103
Pobrano: 54 razy
Kondycja:






Pink Floyd - The Wall (1979) (2012 PBTHAL 24-96 FLAC)



Pink Floyd
The Wall (1979)
FLAC LOSSLESS 24bit-96kHz
2012 PBTHAL Vinyl


allmusic.com...

The Wall was Roger Waters' crowning accomplishment in Pink Floyd. It documented the rise and fall of a rock star (named Pink Floyd), based on Waters' own experiences and the tendencies he'd observed in people around him. The story revolves around the fictional Pink Floyd's isolation behind a psychological wall. The wall grows as various parts of his life spin out of control, and he grows incapable of dealing with his neuroses. When his record company uses drugs to coax him to perform ("Comfortably Numb"), his onstage persona is transformed into a homophobic, race-baiting fascist ("In the Flesh"). In "The Trial," he mentally prosecutes himself, and the wall comes tumbling down. This ambitious concept album was an across-the-board smash, topping the Billboard album chart for 15 weeks in 1980. The single "Another Brick in the Wall, Pt. 2" was the country's best-seller for four weeks. The Wall spawned an elaborate stage show (so elaborate, in fact, that the band was able to bring it to only a few cities) and a full-length film. It also marked the last time Waters and Gilmour would work together as equal partners.



foobar2000 1.4.3 / Dynamic Range Meter 1.1.1
log date: 2020-10-23 22:23:46

--------------------------------------------------------------------------------
Analyzed: Pink Floyd / The Wall
--------------------------------------------------------------------------------

DR Peak RMS Duration Track
--------------------------------------------------------------------------------



DR12 -0.70 dB -16.60 dB 3:21 01-In The Flesh?
DR14 -3.61 dB -22.23 dB 2:25 02-Thin Ice
DR15 -0.76 dB -20.61 dB 3:46 03-Another Brick In The Wall, Pt. 1
DR15 -0.70 dB -19.02 dB 1:21 04-Happiest Days Of Our Lives
DR16 -0.70 dB -20.54 dB 4:01 05-Another Brick In The Wall, Pt. 2
DR16 -1.57 dB -22.29 dB 5:31 06-Mother
DR12 -8.55 dB -23.26 dB 2:51 07-Goodbye Blue Sky
DR13 -3.95 dB -23.11 dB 2:07 08-Empty Spaces
DR15 -1.09 dB -19.13 dB 3:29 09-Young Lust
DR15 -0.70 dB -21.29 dB 3:38 10-One Of My Turns
DR14 -4.36 dB -23.32 dB 4:17 11-Don't Leave Me Now
DR16 -0.70 dB -20.32 dB 1:33 12-Another Brick In The Wall, Pt. 3
DR8 -15.41 dB -30.89 dB 1:00 13-Goodbye Cruel World
DR14 -1.19 dB -19.79 dB 4:42 14-Hey You
DR14 -3.81 dB -23.84 dB 2:47 15-Is There Anybody Out There?
DR13 -5.67 dB -23.26 dB 3:40 16-Nobody Home
DR12 -6.82 dB -22.90 dB 1:18 17-Vera
DR11 -0.89 dB -16.59 dB 1:22 18-Bring The Boys Back Home
DR13 -0.70 dB -16.84 dB 6:24 19-Comfortably Numb
DR14 -4.91 dB -21.34 dB 1:38 20-Show Must Go On
DR16 -1.68 dB -20.47 dB 4:15 21-In The Flesh
DR17 -0.70 dB -19.77 dB 4:25 22-Run Like Hell
DR13 -3.35 dB -19.36 dB 3:59 23-Waiting For The Worms
DR12 -18.53 dB -34.15 dB 0:34 24-Stop
DR14 -3.74 dB -22.45 dB 5:42 25-The Trial
DR11 -23.00 dB -40.96 dB 1:23 26-Outside The Wall

Number of tracks: 26
Official DR value: DR14

Samplerate: 96000 Hz
Channels: 2
Bits per sample: 24
Bitrate: 2276 kbps
Codec: FLAC

Lista plików Show/Hide [Pokaż/Ukryj]
Trackery
Tracker URLSeedówPeerówPobrań
http://tracker.opentrackr.org:1337/announce13218659
udp://tracker.openbittorrent.com:80/announce13119659
udp://tracker.internetwarriors.net:1337/announce10315383
udp://tracker.coppersurfer.tk:6969/announce10017317
udp://tracker.torrent.eu.org:451/announce6811329
udp://exodus.desync.com:6969/announce6613293
udp://explodie.org:6969/announce50100
udp://denis.stalker.upeer.me:6969/announce000
udp://tracker.leechers-paradise.org:6969/announce000
Podobne Pliki

Komentarze

Brak komentarzy!

Dodawanie komentarza
Komentujesz torrenta:
Pink Floyd - The Wall (1979) (2012 PBTHAL 24-96 FLAC)

NAJCZĘŚCIEJ POBIERANE