Kategorie
Ranking
RSS
Programy

Statystyki
Użytkowników:
Zarejestrowanych wczoraj:
Zarejestrowanych dzisiaj:
Torrentów:
Dodanych wczoraj:
Dodanych dzisiaj:
Warezów:
Dodanych wczoraj:
Dodanych dzisiaj:
131,328
55
2
138,022
95
8
10,846
16
0
Ostatnie 30
Popularne
w Listopadzie
==Torrent==
Kategoria: Muzyka » Rock


Dodał: Beatrix
Data dodania:
2020-10-26 15:44:03
Rozmiar: 821.95 MB
Seedów: 368
Peerów: 131
Pobrano: 48 razy
Kondycja:






Pink Floyd - The Dark Side Of The Moon (2012 PBTHAL 24-96 FLAC)



Pink Floyd
The Dark Side Of The Moon (1973)
FLAC LOSSLESS 24bit-96kHz
2012 PBTHAL Vinyl


allmusic.com...

By condensing the sonic explorations of Meddle to actual songs and adding a lush, immaculate production to their trippiest instrumental sections, Pink Floyd inadvertently designed their commercial breakthrough with Dark Side of the Moon. The primary revelation of Dark Side of the Moon is what a little focus does for the band. Roger Waters wrote a series of songs about mundane, everyday details which aren't that impressive by themselves, but when given the sonic backdrop of Floyd's slow, atmospheric soundscapes and carefully placed sound effects, they achieve an emotional resonance. But what gives the album true power is the subtly textured music, which evolves from ponderous, neo-psychedelic art rock to jazz fusion and blues-rock before turning back to psychedelia. It's dense with detail, but leisurely paced, creating its own dark, haunting world. Pink Floyd may have better albums than Dark Side of the Moon, but no other record defines them quite as well as this one.


foobar2000 1.4.3 / Dynamic Range Meter 1.1.1
log date: 2020-10-25 18:02:59

--------------------------------------------------------------------------------
Analyzed: Pink Floyd / The Dark Side Of The Moon
--------------------------------------------------------------------------------

DR Peak RMS Duration Track
--------------------------------------------------------------------------------



DR12 -6.46 dB -24.54 dB 1:13 01-Speak To Me
DR12 -2.63 dB -17.43 dB 2:45 02-Breathe
DR13 -1.69 dB -19.73 dB 3:35 03-On The Run
DR12 -1.53 dB -16.76 dB 7:05 04-Time
DR11 -0.70 dB -17.96 dB 4:43 05-The Great Gig In The Sky
DR12 -2.87 dB -18.39 dB 6:34 06-Money
DR11 -3.51 dB -19.49 dB 7:40 07-Us And Them
DR12 -2.95 dB -17.03 dB 3:26 08-Any Colour You Like
DR12 -2.84 dB -20.07 dB 3:50 09-Brain Damage
DR11 -0.70 dB -16.03 dB 2:05 10-Eclipse

Number of tracks: 10
Official DR value: DR12

Samplerate: 96000 Hz
Channels: 2
Bits per sample: 24
Bitrate: 2702 kbps
Codec: FLAC

Lista plików Show/Hide [Pokaż/Ukryj]
Trackery
Tracker URLSeedówPeerówPobrań
http://tracker.opentrackr.org:1337/announce8832367
udp://tracker.openbittorrent.com:80/announce8832367
udp://tracker.internetwarriors.net:1337/announce7022225
udp://tracker.torrent.eu.org:451/announce4615179
udp://exodus.desync.com:6969/announce4416167
udp://explodie.org:6969/announce32140
udp://denis.stalker.upeer.me:6969/announce000
udp://tracker.coppersurfer.tk:6969/announce000
udp://tracker.leechers-paradise.org:6969/announce000
Podobne Pliki

Komentarze

Brak komentarzy!

Dodawanie komentarza
Komentujesz torrenta:
Pink Floyd - The Dark Side Of The Moon (2012 PBTHAL 24-96 FLAC)

NAJCZĘŚCIEJ POBIERANE