Kategorie
Ranking
RSS
Programy

Statystyki
Użytkowników:
Zarejestrowanych wczoraj:
Zarejestrowanych dzisiaj:
Torrentów:
Dodanych wczoraj:
Dodanych dzisiaj:
Warezów:
Dodanych wczoraj:
Dodanych dzisiaj:
131,759
50
10
138,828
100
27
11,011
36
20
Ostatnie 30
Popularne
w Grudniu
==Torrent==
Kategoria: Muzyka » Rock


Dodał: Beatrix
Data dodania:
2020-10-26 15:51:54
Rozmiar: 801.47 MB
Seedów: 411
Peerów: 188
Pobrano: 17 razy
Kondycja:






Deep Purple - Machine Head (1972) (Vinyl 24-96 FLAC)



Deep Purple
Machine Head (1972)
FLAC LOSSLESS 24bit-96kHz
Original UK Pressing Vinyl


allmusic.com...

Led Zeppelin's fourth album, Black Sabbath's Paranoid, and Deep Purple's Machine Head have stood the test of time as the Holy Trinity of English hard rock and heavy metal, serving as the fundamental blueprints followed by virtually every heavy rock & roll band since the early '70s. And, though it is probably the least celebrated of the three, Machine Head contains the "mother of all guitar riffs" -- and one of the first learned by every beginning guitarist -- in "Smoke on the Water." Inspired by real-life events in Montreux, Switzerland, where Deep Purple were recording the album when the Montreux Casino was burned to the ground during a Frank Zappa concert, neither the song, nor its timeless riff, should need any further description. However, Machine Head was anything but a one-trick pony, introducing the bona fide classic opener "Highway Star," which epitomized all of Deep Purple's intensity and versatility while featuring perhaps the greatest soloing duel ever between guitarist Ritchie Blackmore and organist Jon Lord. Also in top form was singer Ian Gillan, who crooned and exploded with amazing power and range throughout to establish himself once and for all as one of the finest voices of his generation, bar none. Yes, the plodding shuffle of "Maybe I'm a Leo" shows some signs of age, but punchy singles "Pictures of Home" and "Never Before" remain as vital as ever, displaying Purple at their melodic best. And finally, the spectacular "Space Truckin'" drove Machine Head home with yet another tremendous Blackmore riff, providing a fitting conclusion to one of the essential hard rock albums of all time.


foobar2000 1.4.3 / Dynamic Range Meter 1.1.1
log date: 2020-10-21 18:46:55

--------------------------------------------------------------------------------
Analyzed: Deep Purple / Machine Head
--------------------------------------------------------------------------------

DR Peak RMS Duration Track
--------------------------------------------------------------------------------



DR12 -1.63 dB -15.85 dB 6:08 01-Highway Star
DR15 -0.70 dB -17.83 dB 4:52 02-Maybe I'm A Leo
DR13 -1.46 dB -16.63 dB 5:05 03-Pictures Of Home
DR12 -2.20 dB -17.01 dB 3:59 04-Never Before
DR14 -0.70 dB -16.99 dB 5:41 05-Smoke On The Water
DR13 -1.27 dB -17.50 dB 7:23 06-Lazy
DR14 -2.02 dB -17.66 dB 4:32 07-Space Truckin'

Number of tracks: 7
Official DR value: DR13

Samplerate: 96000 Hz
Channels: 2
Bits per sample: 24
Bitrate: 2953 kbps
Codec: FLAC

Lista plików Show/Hide [Pokaż/Ukryj]
Trackery
Tracker URLSeedówPeerówPobrań
http://tracker.opentrackr.org:1337/announce8237233
udp://tracker.openbittorrent.com:80/announce8237233
udp://tracker.coppersurfer.tk:6969/announce6724121
udp://tracker.internetwarriors.net:1337/announce6331150
udp://tracker.torrent.eu.org:451/announce4423113
udp://exodus.desync.com:6969/announce4122101
udp://explodie.org:6969/announce32140
udp://denis.stalker.upeer.me:6969/announce000
udp://tracker.leechers-paradise.org:6969/announce000
Podobne Pliki

Komentarze
<< Poprzednia      Następna >>
1 - 2
  • Napisano dnia 2020-10-26 17:53:09 GMT
    Regis77
    Ta płyta to majstersztyk.... Pięknie dziękuję :-)
  • Napisano dnia 2020-10-26 21:08:00 GMT
    Beatrix
    Pozdrawiam Regis
Przeglądaj
1 - 2
<< Poprzednia      Następna >>
Dodawanie komentarza
Komentujesz torrenta:
Deep Purple - Machine Head (1972) (Vinyl 24-96 FLAC)

NAJCZĘŚCIEJ POBIERANE