Kategorie
Ranking
RSS
Programy

Statystyki
Użytkowników:
Zarejestrowanych wczoraj:
Zarejestrowanych dzisiaj:
Torrentów:
Dodanych wczoraj:
Dodanych dzisiaj:
Warezów:
Dodanych wczoraj:
Dodanych dzisiaj:
131,787
36
2
138,909
98
11
11,011
20
0
Ostatnie 30
Popularne
w Grudniu
==Torrent==
Kategoria: Muzyka » Rock


Dodał: Beatrix
Data dodania:
2020-10-27 08:49:25
Rozmiar: 1.14 GB
Seedów: 42
Peerów: 4
Pobrano: 20 razy
Kondycja:






Guns N' Roses - Appetite For Destruction (PBTHAL LP 24-96 FLAC)



Guns N' Roses
Appetite For Destruction (1987)
FLAC LOSSLESS 24bit-96kHz
1987 German Original Press
2014 PBTHAL LP


allmusic.com...

At a time when pop was dominated by dance music and pop-metal, Guns N' Roses brought raw, ugly rock & roll crashing back into the charts. They were not nice boys: nice boys don't play rock & roll. They were ugly, misogynistic, and violent; they were also funny, vulnerable, and occasionally sensitive, as their breakthrough hit, "Sweet Child O' Mine," showed.


foobar2000 1.4.3 / Dynamic Range Meter 1.1.1
log date: 2020-10-26 18:43:34

--------------------------------------------------------------------------------
Analyzed: Guns N' Roses / Appetite For Destruction
--------------------------------------------------------------------------------

DR Peak RMS Duration Track
--------------------------------------------------------------------------------



DR13 -0.70 dB -15.85 dB 4:33 01-Welcome To The Jungle
DR13 -1.70 dB -16.26 dB 3:23 02-It's So Easy
DR13 -1.28 dB -16.12 dB 4:29 03-Nightrain
DR12 -2.63 dB -16.75 dB 4:22 04-Out Ta Get Me
DR13 -2.75 dB -17.53 dB 3:49 05-Mr. Brownstone
DR13 -2.59 dB -17.61 dB 6:47 06-Paradise City
DR13 -1.83 dB -16.58 dB 3:40 07-My Michelle
DR13 -2.19 dB -16.86 dB 3:52 08-Think About You
DR13 -0.70 dB -16.85 dB 5:56 09-Sweet Child O' Mine
DR12 -2.31 dB -15.15 dB 3:17 10-You're Crazy
DR13 -2.58 dB -17.38 dB 3:27 11-Anything Goes
DR14 -0.78 dB -16.31 dB 6:16 12-Rocket Queen

Number of tracks: 12
Official DR value: DR13

Samplerate: 96000 Hz
Channels: 2
Bits per sample: 24
Bitrate: 3084 kbps
Codec: FLAC

Lista plików Show/Hide [Pokaż/Ukryj]
Trackery
Tracker URLSeedówPeerówPobrań
http://tracker.opentrackr.org:1337/announce1211524
udp://tracker.openbittorrent.com:80/announce1211524
udp://tracker.leechers-paradise.org:6969/announce60489
udp://exodus.desync.com:6969/announce5161
udp://tracker.torrent.eu.org:451/announce50661
udp://explodie.org:6969/announce210
udp://denis.stalker.upeer.me:6969/announce000
udp://tracker.coppersurfer.tk:6969/announce000
udp://tracker.internetwarriors.net:1337/announce000
Podobne Pliki

Komentarze

Brak komentarzy!

Dodawanie komentarza
Komentujesz torrenta:
Guns N' Roses - Appetite For Destruction (PBTHAL LP 24-96 FLAC)

NAJCZĘŚCIEJ POBIERANE