Kategorie
Ranking
RSS
Programy

Statystyki
Użytkowników:
Zarejestrowanych wczoraj:
Zarejestrowanych dzisiaj:
Torrentów:
Dodanych wczoraj:
Dodanych dzisiaj:
Warezów:
Dodanych wczoraj:
Dodanych dzisiaj:
131,832
41
6
139,033
111
24
11,031
20
0
Ostatnie 30
Popularne
w Grudniu
==Torrent==
Kategoria: Muzyka » Rock


Dodał: Beatrix
Data dodania:
2020-10-27 08:56:59
Rozmiar: 898.35 MB
Seedów: 194
Peerów: 108
Pobrano: 31 razy
Kondycja:






Jethro Tull - Aqua Lung (1971) (PBTHAL LP 24-96) [FLAC]



Jethro Tull
Aqua Lung (1971)
FLAC LOSSLESS 24bit-96kHz
2011 PBTHAL Vinyl


allmusic.com...

Jethro Tull were a unique phenomenon in popular music history. Their mix of hard rock, folk melodies, blues licks, surreal, impossibly dense lyrics, and overall profundity defied easy analysis, but that didn't dissuade fans from giving them 11 gold and five platinum albums. At the same time, critics rarely took them seriously, and they were off the cutting-edge of popular music by the end of the '70s. But no record store in the country would want to be without multiple copies of each of their most popular albums (Benefit, Aqualung, Thick as a Brick, Living in the Past), or their various best-of compilations, and few would knowingly ignore their newer releases.


foobar2000 1.4.3 / Dynamic Range Meter 1.1.1
log date: 2020-10-23 22:44:07

--------------------------------------------------------------------------------
Analyzed: Jethro Tull / Aqualung
--------------------------------------------------------------------------------

DR Peak RMS Duration Track
--------------------------------------------------------------------------------



DR12 -0.07 dB -14.75 dB 6:35 01-Aqualung
DR11 -0.07 dB -12.76 dB 4:10 02-Cross-Eyed Mary
DR15 -4.57 dB -24.10 dB 1:22 03-Cheap Day Return
DR14 -0.07 dB -17.28 dB 3:53 04-Mother Goose
DR15 -3.09 dB -21.79 dB 1:53 05-Wond'ring Aloud
DR12 -0.07 dB -13.85 dB 3:14 06-Up To Me
DR12 -0.08 dB -16.44 dB 7:11 07-My God
DR11 -0.07 dB -12.84 dB 3:18 08-Hymn 43
DR15 -3.10 dB -23.19 dB 1:13 09-Slipstream
DR13 -0.08 dB -16.09 dB 4:41 10-Locomotive Breath
DR12 -0.08 dB -16.37 dB 6:03 11-Wind-Up

Number of tracks: 11
Official DR value: DR13

Samplerate: 96000 Hz
Channels: 2
Bits per sample: 24
Bitrate: 2663 kbps
Codec: FLAC

Lista plików Show/Hide [Pokaż/Ukryj]
Trackery
Tracker URLSeedówPeerówPobrań
http://tracker.opentrackr.org:1337/announce351892
udp://tracker.openbittorrent.com:80/announce351892
udp://tracker.coppersurfer.tk:6969/announce302054
udp://tracker.internetwarriors.net:1337/announce261752
udp://tracker.leechers-paradise.org:6969/announce201045
udp://tracker.torrent.eu.org:451/announce181143
udp://exodus.desync.com:6969/announce17938
udp://explodie.org:6969/announce1350
udp://denis.stalker.upeer.me:6969/announce000
Podobne Pliki

Komentarze

Brak komentarzy!

Dodawanie komentarza
Komentujesz torrenta:
Jethro Tull - Aqua Lung (1971) (PBTHAL LP 24-96) [FLAC]

NAJCZĘŚCIEJ POBIERANE