Kategorie
Ranking
RSS
Programy

Statystyki
Użytkowników:
Zarejestrowanych wczoraj:
Zarejestrowanych dzisiaj:
Torrentów:
Dodanych wczoraj:
Dodanych dzisiaj:
Warezów:
Dodanych wczoraj:
Dodanych dzisiaj:
131,829
41
3
139,016
112
6
11,031
20
0
Ostatnie 30
Popularne
w Grudniu
==Torrent==
Kategoria: TV/Seriale » Czarna komedia


Dodał: Jordan-83
Data dodania:
2020-10-30 07:17:48
Rozmiar: 9.95 GB
Seedów: 334
Peerów: 143
Pobrano: 139 razy
Kondycja:






Poszukiwacze prawdy - Truth Seekers *2020* [S01] [1080p] [AMZN] [WEB-DL] [DD5.1] [X264] [NTb] [Napisy PL] [MULTi]



Produkcja: UK
Gatunek: Komedia, Horror
Twórcy: Nick Frost, Simon Pegg
Platforma: Amazon
Premiera: 30 października 2020



Instalator internetu szerokopasmowego za dnia, badacz zjawisk paranormalnych w nocy, Gus jest zirytowany współpracą z „noobem” Eltonem, ale docenia fakt, że ktoś jeździ, gdy odkrywają nagły wzrost aktywności nadprzyrodzonej. Wkrótce dołącza do nich Astrid, która ma własne problemy z duchami, a gang postanawia stworzyć kanał YouTube z polowaniem na duchy, odkrywając po drodze przerażający spisek.



Nick Frost as Gus Roberts
Simon Pegg as Dave
Emma D'Arcy as Astrid
Samson Kayo as Elton John
Susie Wokoma as Helen
Julian Barratt as Dr. Peter Toynbee
Rosalie Craig as Emily Roberts



Video
ID : 1
Format : AVC
Format/Info : Advanced Video Codec
Format profile : High@L4
Format settings : CABAC / 4 Ref Frames
Format settings, CABAC : Yes
Format settings, Reference frames : 4 frames
Codec ID : V_MPEG4/ISO/AVC
Duration : 32 min 43 s
Bit rate mode : Constant
Bit rate : 5 993 kb/s
Nominal bit rate : 10 000 kb/s
Width : 1 920 pixels
Height : 1 080 pixels
Display aspect ratio : 16:9
Frame rate mode : Constant
Frame rate : 23.976 (24000/1001) FPS
Color space : YUV
Chroma subsampling : 4:2:0
Bit depth : 8 bits
Scan type : Progressive
Bits/(Pixel*Frame) : 0.121
Stream size : 1.37 GiB (90%)
Default : Yes
Forced : No
Color range : Limited
Color primaries : BT.709
Transfer characteristics : BT.709
Matrix coefficients : BT.709

Audio
ID : 2
Format : E-AC-3
Format/Info : Enhanced AC-3
Commercial name : Dolby Digital Plus
Codec ID : A_EAC3
Duration : 32 min 43 s
Bit rate mode : Constant
Bit rate : 640 kb/s
Channel(s) : 6 channels
Channel layout : L R C LFE Ls Rs
Sampling rate : 48.0 kHz
Frame rate : 31.250 FPS (1536 SPF)
Compression mode : Lossy
Stream size : 150 MiB (10%)
Language : English
Service kind : Complete Main
Default : Yes
Forced : No

Text #1
ID : 3
Format : UTF-8
Codec ID : S_TEXT/UTF8
Codec ID/Info : UTF-8 Plain Text
Duration : 31 min 20 s
Bit rate : 74 b/s
Count of elements : 568
Stream size : 17.2 KiB (0%)
Title : SDH
Language : English
Default : No
Forced : No

Text #2
ID : 4
Format : UTF-8
Codec ID : S_TEXT/UTF8
Codec ID/Info : UTF-8 Plain Text
Duration : 30 min 52 s
Bit rate : 99 b/s
Count of elements : 441
Stream size : 22.5 KiB (0%)
Language : Arabic
Default : No
Forced : No

Text #3
ID : 5
Format : UTF-8
Codec ID : S_TEXT/UTF8
Codec ID/Info : UTF-8 Plain Text
Duration : 32 min 12 s
Bit rate : 59 b/s
Count of elements : 438
Stream size : 14.2 KiB (0%)
Language : German
Default : No
Forced : No

Text #4
ID : 6
Format : UTF-8
Codec ID : S_TEXT/UTF8
Codec ID/Info : UTF-8 Plain Text
Duration : 32 min 12 s
Bit rate : 60 b/s
Count of elements : 438
Stream size : 14.4 KiB (0%)
Title : Latinoamérica
Language : Spanish
Default : No
Forced : No

Text #5
ID : 7
Format : UTF-8
Codec ID : S_TEXT/UTF8
Codec ID/Info : UTF-8 Plain Text
Duration : 32 min 12 s
Bit rate : 63 b/s
Count of elements : 445
Stream size : 14.9 KiB (0%)
Title : España
Language : Spanish
Default : No
Forced : No

Text #6
ID : 8
Format : UTF-8
Codec ID : S_TEXT/UTF8
Codec ID/Info : UTF-8 Plain Text
Duration : 32 min 12 s
Bit rate : 56 b/s
Count of elements : 424
Stream size : 13.4 KiB (0%)
Language : French
Default : No
Forced : No

Text #7
ID : 9
Format : UTF-8
Codec ID : S_TEXT/UTF8
Codec ID/Info : UTF-8 Plain Text
Duration : 30 min 52 s
Bit rate : 155 b/s
Count of elements : 441
Stream size : 35.2 KiB (0%)
Language : Hindi
Default : No
Forced : No

Text #8
ID : 10
Format : UTF-8
Codec ID : S_TEXT/UTF8
Codec ID/Info : UTF-8 Plain Text
Duration : 32 min 12 s
Bit rate : 64 b/s
Count of elements : 439
Stream size : 15.3 KiB (0%)
Language : Italian
Default : No
Forced : No

Text #9
ID : 11
Format : UTF-8
Codec ID : S_TEXT/UTF8
Codec ID/Info : UTF-8 Plain Text
Duration : 32 min 3 s
Bit rate : 49 b/s
Count of elements : 437
Stream size : 11.6 KiB (0%)
Language : Japanese
Default : No
Forced : No

Text #10
ID : 12
Format : UTF-8
Codec ID : S_TEXT/UTF8
Codec ID/Info : UTF-8 Plain Text
Duration : 32 min 12 s
Bit rate : 66 b/s
Count of elements : 446
Stream size : 15.6 KiB (0%)
Language : Korean
Default : No
Forced : No

Text #11
ID : 13
Format : UTF-8
Codec ID : S_TEXT/UTF8
Codec ID/Info : UTF-8 Plain Text
Duration : 32 min 12 s
Bit rate : 55 b/s
Count of elements : 434
Stream size : 13.1 KiB (0%)
Language : Dutch
Default : No
Forced : No

Text #12
ID : 14
Format : UTF-8
Codec ID : S_TEXT/UTF8
Codec ID/Info : UTF-8 Plain Text
Duration : 30 min 52 s
Bit rate : 63 b/s
Count of elements : 438
Stream size : 14.4 KiB (0%)
Language : Polish
Default : No
Forced : No

Text #13
ID : 15
Format : UTF-8
Codec ID : S_TEXT/UTF8
Codec ID/Info : UTF-8 Plain Text
Duration : 32 min 12 s
Bit rate : 61 b/s
Count of elements : 438
Stream size : 14.6 KiB (0%)
Language : Portuguese
Default : No
Forced : No

Text #14
ID : 16
Format : UTF-8
Codec ID : S_TEXT/UTF8
Codec ID/Info : UTF-8 Plain Text
Duration : 32 min 12 s
Bit rate : 100 b/s
Count of elements : 446
Stream size : 23.8 KiB (0%)
Language : Russian
Default : No
Forced : No

Text #15
ID : 17
Format : UTF-8
Codec ID : S_TEXT/UTF8
Codec ID/Info : UTF-8 Plain Text
Duration : 32 min 12 s
Bit rate : 62 b/s
Count of elements : 438
Stream size : 14.7 KiB (0%)
Language : Turkish
Default : No
Forced : No

Menu
00:00:00.000 : en:Amazon Original
00:00:05.000 : en:Air raids
00:02:06.000 : en:Title Sequence
00:02:14.000 : en:Searching the van
00:03:59.000 : en:A haunted new assignment
00:04:50.000 : en:Gus's home
00:07:40.000 : en:Personal lives are complicated
00:09:24.000 : en:Arrival at The Portland Beacon
00:11:18.000 : en:Sneaking around
00:12:48.000 : en:A tour of the property
00:14:22.000 : en:Running tests
00:18:15.000 : en:Richard surfs the internet
00:19:43.000 : en:Exploring room 2
00:22:37.000 : en:Time to move on
00:28:18.000 : en:Good news for Dave
00:28:31.000 : en:Happy customers
00:29:53.000 : en:Returning home
00:31:24.000 : en:End Credits

Trailer
Lista plików Show/Hide [Pokaż/Ukryj]
Trackery
Tracker URLSeedówPeerówPobrań
udp://9.rarbg.me:2830/announce3341438897
http://tracker.trackerfix.com:80/announce000
udp://9.rarbg.to:2880/announce000

Komentarze

Brak komentarzy!

Dodawanie komentarza
Komentujesz torrenta:
Poszukiwacze prawdy - Truth Seekers *2020* [S01] [1080p] [AMZN] [WEB-DL] [DD5.1] [X264] [NTb] [Napisy PL] [MULTi]

NAJCZĘŚCIEJ POBIERANE