Kategorie
Ranking
RSS
Programy

Statystyki
Użytkowników:
Zarejestrowanych wczoraj:
Zarejestrowanych dzisiaj:
Torrentów:
Dodanych wczoraj:
Dodanych dzisiaj:
Warezów:
Dodanych wczoraj:
Dodanych dzisiaj:
131,787
36
2
138,908
98
10
11,011
20
0
Ostatnie 30
Popularne
w Grudniu
==Torrent==
Kategoria: Muzyka » Rock


Dodał: Beatrix
Data dodania:
2020-10-31 19:45:36
Rozmiar: 816.42 MB
Seedów: 392
Peerów: 94
Pobrano: 26 razy
Kondycja:






Fleetwood Mac - Rumours (1977) (2020 PBTHAL LP 24-96) [FLAC]



Fleetwood Mac
Rumours (1977)
FLAC LOSSLESS 24bit-96kHz
2020 PBTHAL 45 RPM LP


allmusic.com...

Rumours is the kind of album that transcends its origins and reputation, entering the realm of legend -- it's an album that simply exists outside of criticism and outside of its time, even if it thoroughly captures its era. Prior to this LP, Fleetwood Mac were moderately successful, but here they turned into a full-fledged phenomenon, with Rumours becoming the biggest-selling pop album to date. While its chart success was historic, much of the legend surrounding the record is born from the group's internal turmoil. Unlike most bands, Fleetwood Mac in the mid-'70s were professionally and romantically intertwined, with no less than two couples in the band, but as their professional career took off, the personal side unraveled. Bassist John McVie and his keyboardist/singer wife Christine McVie filed for divorce as guitarist/vocalist Lindsey Buckingham and vocalist Stevie Nicks split, with Stevie running to drummer Mick Fleetwood, unbeknown to the rest of the band. These personal tensions fueled nearly every song on Rumours, which makes listening to the album a nearly voyeuristic experience. You're eavesdropping on the bandmates singing painful truths about each other, spreading nasty lies and rumors and wallowing in their grief, all in the presence of the person who caused the heartache.


foobar2000 1.4.3 / Dynamic Range Meter 1.1.1
log date: 2020-10-23 23:20:41

--------------------------------------------------------------------------------
Analyzed: Fleetwood Mac / Rumours
--------------------------------------------------------------------------------

DR Peak RMS Duration Track
--------------------------------------------------------------------------------



DR14 -1.20 dB -17.94 dB 2:45 01-Second Hand News
DR15 -0.70 dB -18.90 dB 4:19 02-Dreams
DR14 -5.77 dB -24.63 dB 2:06 03-Never Going Back Again
DR15 -1.63 dB -18.68 dB 3:16 04-Don't Stop
DR13 -1.10 dB -16.74 dB 3:42 05-Go Your Own Way
DR14 -6.16 dB -25.23 dB 3:23 06-Songbird
DR15 -1.22 dB -20.09 dB 4:27 07-The Chain
DR13 -1.13 dB -17.13 dB 3:35 08-You Make Loving Fun
DR15 -1.61 dB -18.83 dB 3:15 09-I Don't Want To Know
DR15 -2.01 dB -19.46 dB 3:56 10-Oh Daddy
DR15 -1.00 dB -20.18 dB 5:19 11-Gold Dust Woman

Number of tracks: 11
Official DR value: DR14

Samplerate: 96000 Hz
Channels: 2
Bits per sample: 24
Bitrate: 2774 kbps
Codec: FLAC

Lista plików Show/Hide [Pokaż/Ukryj]
Trackery
Tracker URLSeedówPeerówPobrań
http://tracker.opentrackr.org:1337/announce9421947
udp://tracker.openbittorrent.com:80/announce9421947
udp://tracker.internetwarriors.net:1337/announce5815525
udp://tracker.leechers-paradise.org:6969/announce427319
udp://tracker.torrent.eu.org:451/announce4111451
udp://exodus.desync.com:6969/announce3912412
udp://explodie.org:6969/announce2470
udp://denis.stalker.upeer.me:6969/announce000
udp://tracker.coppersurfer.tk:6969/announce000
Podobne Pliki

Komentarze

Brak komentarzy!

Dodawanie komentarza
Komentujesz torrenta:
Fleetwood Mac - Rumours (1977) (2020 PBTHAL LP 24-96) [FLAC]

NAJCZĘŚCIEJ POBIERANE