Kategorie
Ranking
RSS
Programy

Statystyki
Użytkowników:
Zarejestrowanych wczoraj:
Zarejestrowanych dzisiaj:
Torrentów:
Dodanych wczoraj:
Dodanych dzisiaj:
Warezów:
Dodanych wczoraj:
Dodanych dzisiaj:
134,933
48
6
144,005
82
19
11,772
0
0
Ostatnie 30
Popularne
w Styczniu
==Torrent==
Kategoria: Muzyka » Jazz


Dodał: Beatrix
Data dodania:
2020-11-07 22:44:03
Rozmiar: 897.58 MB
Seedów: 140
Peerów: 11
Pobrano: 15 razy
Kondycja:






Norah Jones - Feels Like Home (2004) (PBTHAL LP 24-96) [FLAC]



Norah Jones
Feels Like Home (2004)
FLAC LOSSLESS 24bit-96kHz
PBTHAL Vinyl


allmusic.com...

When Norah Jones arrived in the early 2000s, it appeared as if she was the torchbearer for two traditions on the verge of disappearing: sophisticated vocal jazz designed for small, smoky clubs and the warm, burnished sound of the Southern California singer/songwriters of the early '70s. Come Away with Me, her 2002 debut -- conspicuously released on the revived Blue Note imprint -- hit this sweet spot and resonated with millions of listeners, turning Jones into an unexpected star. Instead of cultivating this niche, Jones soon proved to be quietly adventurous, which perhaps shouldn't have been a surprise for a musician trained in piano and ensconced in New York City's jazz clubs. As the 2000s gave way to the 2010s, she incorporated daringly modern musical elements into her albums, which increasingly veered toward adult alternative pop, all the while spending time with side projects where she sang country, punk, and jazz, an indication of her expansive taste and skill, qualities that didn't diminish as her career progressed.


foobar2000 1.4.3 / Dynamic Range Meter 1.1.1
log date: 2020-10-30 13:56:57

--------------------------------------------------------------------------------
Analyzed: Norah Jones / Feels Like Home
--------------------------------------------------------------------------------

DR Peak RMS Duration Track
--------------------------------------------------------------------------------



DR11 -3.50 dB -17.22 dB 3:20 01-Sunrise
DR12 -2.18 dB -16.80 dB 3:30 02-What Am I To You?
DR14 -2.67 dB -19.18 dB 3:22 03-Those Sweet Words
DR13 -5.44 dB -23.50 dB 3:11 04-Carnival Town
DR13 -1.00 dB -17.40 dB 4:07 05-In The Morning
DR13 -2.05 dB -18.01 dB 3:30 06-Be Here To Love Me
DR12 -2.54 dB -17.77 dB 3:02 07-Creepin' In
DR12 -2.05 dB -17.84 dB 3:47 08-Toes
DR13 -6.00 dB -21.76 dB 4:34 09-Humble Me
DR14 -1.00 dB -17.70 dB 3:42 10-Above Ground
DR12 -6.36 dB -20.82 dB 3:13 11-The Long Way Home
DR15 -3.40 dB -22.00 dB 3:51 12-The Prettiest Thing
DR14 -7.24 dB -25.64 dB 3:10 13-Don't Miss You At All


Number of tracks: 13
Official DR value: DR13

Samplerate: 96000 Hz
Channels: 2
Bits per sample: 24
Bitrate: 2539 kbps
Codec: FLAC

Lista plików Show/Hide [Pokaż/Ukryj]
Trackery
Tracker URLSeedówPeerówPobrań
http://tracker.opentrackr.org:1337/announce354515
udp://tracker.openbittorrent.com:80/announce354515
udp://tracker.torrent.eu.org:451/announce221253
udp://exodus.desync.com:6969/announce221241
udp://explodie.org:6969/announce1810
udp://tracker.internetwarriors.net:1337/announce801
udp://denis.stalker.upeer.me:6969/announce000
udp://tracker.coppersurfer.tk:6969/announce000
udp://tracker.leechers-paradise.org:6969/announce000
Podobne Pliki

Komentarze

Brak komentarzy!

Dodawanie komentarza
Komentujesz torrenta:
Norah Jones - Feels Like Home (2004) (PBTHAL LP 24-96) [FLAC]

NAJCZĘŚCIEJ POBIERANE