Kategorie
Ranking
RSS
Programy

Statystyki
Użytkowników:
Zarejestrowanych wczoraj:
Zarejestrowanych dzisiaj:
Torrentów:
Dodanych wczoraj:
Dodanych dzisiaj:
Warezów:
Dodanych wczoraj:
Dodanych dzisiaj:
135,132
63
58
144,369
91
114
11,807
0
1
Ostatnie 30
Popularne
w Styczniu
==Torrent==
Kategoria: Muzyka » Metal


Dodał: Beatrix
Data dodania:
2020-11-24 21:47:51
Rozmiar: 1.27 GB
Seedów: 246
Peerów: 47
Pobrano: 9 razy
Kondycja:






Alice In Chains - Dirt (1992) (PBTHAL LP 24-96) [FLAC]



Alice In Chains
Dirt (1992)
FLAC LOSSLESS 24bit-96kHz
PBTHAL Vinyl Rip


allmusic.com...

Dirt is Alice in Chains' major artistic statement and the closest they ever came to recording a flat-out masterpiece. It's a primal, sickening howl from the depths of Layne Staley's heroin addiction, and one of the most harrowing concept albums ever recorded. Not every song on Dirt is explicitly about heroin, but Jerry Cantrell's solo-written contributions (nearly half the album) effectively maintain the thematic coherence -- nearly every song is imbued with the morbidity, self-disgust, and/or resignation of a self-aware yet powerless addict. Cantrell's technically limited but inventive guitar work is by turns explosive, textured, and queasily disorienting, keeping the listener off balance with atonal riffs and off-kilter time signatures. Staley's stark confessional lyrics are similarly effective, and consistently miserable. Sometimes he's just numb and apathetic, totally desensitized to the outside world; sometimes his self-justifications betray a shockingly casual amorality; his moments of self-recognition are permeated by despair and suicidal self-loathing. Even given its subject matter, Dirt is monstrously bleak, closely resembling the cracked, haunted landscape of its cover art. The album holds out little hope for its protagonists (aside from the much-needed survival story of "Rooster," a tribute to Cantrell's Vietnam-vet father), but in the end, it's redeemed by the honesty of its self-revelation and the sharp focus of its music.


foobar2000 1.4.3 / Dynamic Range Meter 1.1.1
log date: 2020-11-23 21:21:39

--------------------------------------------------------------------------------
Analyzed: Alice In Chains / Dirt
--------------------------------------------------------------------------------

DR Peak RMS Duration Track
--------------------------------------------------------------------------------



DR11 -1.26 dB -13.94 dB 2:30 01-Them Bones
DR11 -1.60 dB -14.12 dB 3:09 02-Dam That River
DR12 -2.31 dB -15.77 dB 6:02 03-Rain When I Die
DR11 -0.70 dB -14.78 dB 5:38 04-Down In A Hole
DR11 -1.23 dB -14.46 dB 5:30 05-Sickman
DR12 -3.22 dB -17.64 dB 6:15 06-Rooster
DR12 -0.70 dB -15.04 dB 5:10 07-Junkhead
DR12 -0.79 dB -14.55 dB 5:16 08-Dirt
DR11 -1.00 dB -14.21 dB 3:51 09-God Smack
DR10 -2.39 dB -15.18 dB 0:44 10-Iron Gland
DR11 -0.99 dB -13.95 dB 5:16 11-Hate To Feel
DR12 -1.47 dB -14.38 dB 4:48 12-Angry Chair
DR11 -2.06 dB -15.35 dB 3:28 13-Would?

Number of tracks: 13
Official DR value: DR11

Samplerate: 96000 Hz
Channels: 2
Bits per sample: 24
Bitrate: 3098 kbps
Codec: FLAC

Lista plików Show/Hide [Pokaż/Ukryj]
Trackery
Tracker URLSeedówPeerówPobrań
http://tracker.opentrackr.org:1337/announce5610273
udp://tracker.openbittorrent.com:80/announce5610273
udp://tracker.internetwarriors.net:1337/announce4510178
udp://tracker.torrent.eu.org:451/announce355150
udp://exodus.desync.com:6969/announce316143
udp://explodie.org:6969/announce2360
udp://denis.stalker.upeer.me:6969/announce000
udp://tracker.coppersurfer.tk:6969/announce000
udp://tracker.leechers-paradise.org:6969/announce000
Podobne Pliki

Komentarze

Brak komentarzy!

Dodawanie komentarza
Komentujesz torrenta:
Alice In Chains - Dirt (1992) (PBTHAL LP 24-96) [FLAC]

NAJCZĘŚCIEJ POBIERANE