Kategorie
Ranking
RSS
Programy

Statystyki
Użytkowników:
Zarejestrowanych wczoraj:
Zarejestrowanych dzisiaj:
Torrentów:
Dodanych wczoraj:
Dodanych dzisiaj:
Warezów:
Dodanych wczoraj:
Dodanych dzisiaj:
135,408
49
14
144,791
94
31
11,927
36
0
Ostatnie 30
Popularne
w Styczniu
==Torrent==
Kategoria: Muzyka » Rock


Dodał: Beatrix
Data dodania:
2020-11-29 20:15:32
Rozmiar: 888.50 MB
Seedów: 223
Peerów: 143
Pobrano: 15 razy
Kondycja:






The Alan Parsons Project - I Robot (1984) (PBTHAL LP 24-96) [FLAC]



The Alan Parsons Project
I Robot (1984)
FLAC LOSSLESS 24bit-96kHz
MFSL 45 RPM PBTHAL Vinyl Rip


allmusic.com...

Alan Parsons delivered a detailed blueprint for his Project on their 1975 debut, Tales of Mystery and Imagination, but it was on its 1977 follow-up, I Robot, that the outfit reached its true potential. Borrowing not just its title but concept from Isaac Asimov's classic sci-fi Robot trilogy, this album explores many of the philosophies regarding artificial intelligence -- will it overtake man, what does it mean to be man, what responsibilities do mechanical beings have to their creators, and so on and so forth -- with enough knotty intelligence to make it a seminal text of late-'70s geeks, and while it is also true that appreciating I Robot does require a love of either sci-fi or art rock, it is also true that sci-fi art rock never came any better than this.


foobar2000 1.4.3 / Dynamic Range Meter 1.1.1
log date: 2020-11-24 12:05:55

--------------------------------------------------------------------------------
Analyzed: The Alan Parsons Project / I Robot
--------------------------------------------------------------------------------

DR Peak RMS Duration Track
--------------------------------------------------------------------------------



DR11 -1.75 dB -15.90 dB 6:02 01-I Robot
DR11 -1.75 dB -15.83 dB 3:26 02-I Wouldn't Want to Be Like You
DR11 -0.70 dB -15.43 dB 4:06 03-Some Other Time
DR11 -1.82 dB -14.76 dB 3:52 04-Breakdown
DR10 -1.42 dB -15.79 dB 4:24 05-Don't Let It Show
DR12 -2.22 dB -17.75 dB 5:22 06-The Voice
DR11 -4.97 dB -20.61 dB 3:34 07-Nucleus
DR12 -1.96 dB -15.96 dB 3:47 08-Day After Day (The Show Must Go On)
DR10 -5.83 dB -20.73 dB 3:02 09-Total Eclipse
DR10 -2.73 dB -16.13 dB 3:38 10-Genesis Ch. 1 V. 32

Number of tracks: 10
Official DR value: DR11

Samplerate: 96000 Hz
Channels: 2
Bits per sample: 24
Bitrate: 2942 kbps
Codec: FLAC

Lista plików Show/Hide [Pokaż/Ukryj]
Trackery
Tracker URLSeedówPeerówPobrań
http://tracker.opentrackr.org:1337/announce5833282
udp://tracker.openbittorrent.com:80/announce5734281
udp://tracker.leechers-paradise.org:6969/announce3414132
udp://tracker.torrent.eu.org:451/announce2820145
udp://exodus.desync.com:6969/announce2518140
udp://explodie.org:6969/announce21240
udp://denis.stalker.upeer.me:6969/announce000
udp://tracker.coppersurfer.tk:6969/announce000
udp://tracker.internetwarriors.net:1337/announce000
Podobne Pliki

Komentarze

Brak komentarzy!

Dodawanie komentarza
Komentujesz torrenta:
The Alan Parsons Project - I Robot (1984) (PBTHAL LP 24-96) [FLAC]

NAJCZĘŚCIEJ POBIERANE