Kategorie
Ranking
RSS
Programy

Statystyki
Użytkowników:
Zarejestrowanych wczoraj:
Zarejestrowanych dzisiaj:
Torrentów:
Dodanych wczoraj:
Dodanych dzisiaj:
Warezów:
Dodanych wczoraj:
Dodanych dzisiaj:
134,672
55
0
143,490
101
1
11,732
1
0
Ostatnie 30
Popularne
w Styczniu
==Torrent==
Kategoria: Muzyka » Rock


Dodał: Beatrix
Data dodania:
2020-12-02 09:25:04
Rozmiar: 1.45 GB
Seedów: 119
Peerów: 66
Pobrano: 18 razy
Kondycja:






King Crimson - A Young Person's Guide To King Crimson (1975) (2 LP 24-96) [FLAC]



King Crimson
A Young Person's Guide To King Crimson (1975)
FLAC LOSSLESS 24bit-96kHz
2 LP Vinyl Rip


allmusic.com...

For almost two decades before King Crimson's catalog became a minefield of odd retrospectives, live oddities, and archival treasure troves, A Young Person's Guide to King Crimson was the only worthwhile retrospective the band had ever had -- or seemed likely to receive. Originally released in 1976 following the band's apparently irrevocable split of the year before, this Robert Fripp-compiled double album rounded up an excellent, if somewhat idiosyncratic, survey of the group's seven years together, its contents ranging from the unimpeachable classics to unimaginable rarities -- the pre-Crimson demo of "I Talk to the Wind" was a collector's dream at the time, while the presence of "Groon" took the heat off anyone who missed out on its sole previous appearance, as the B-side of 1970's "Cat Food" single. Of the other tracks, three-fifths of the debut album included the anthemic poles of "21st Century Schizoid Man" and "Epitaph," and served to remind just how powerful In the Court of the Crimson King was on release, while more recent highlights included both "Red" and "Starless" from the band's final album (Red), Starless and Bible Black's eternally atmospheric "The Night Watch," and, as if to prove that the band's sense of humor was never far from the surface, the ribald saga of "Ladies of the Road." A vast booklet of facts and figures, again compiled by Fripp and drawing from his own squirrel-like horde of King Crimson memorabilia, rounded off the package. It's a sign of just how well conceived this collection was that, no matter how many more so-called "best-ofs" the band has endured, A Young Person's Guide remains the definitive study of the original King Crimson.


foobar2000 1.4.3 / Dynamic Range Meter 1.1.1
log date: 2020-12-01 18:36:30

--------------------------------------------------------------------------------
Analyzed: King Crimson / A Young Person's Guide To King Crimson
--------------------------------------------------------------------------------

DR Peak RMS Duration Track
--------------------------------------------------------------------------------



DR11 -2.86 dB -18.80 dB 8:51 01-Epitaph
DR12 -4.52 dB -20.61 dB 3:44 02-Cadence & Cascade
DR13 -0.20 dB -17.00 dB 5:33 03-Ladies Of The Road
DR9 -3.56 dB -15.26 dB 3:14 04-I Talk To The Wind (Previously Unreleased Version)
DR12 -0.52 dB -15.57 dB 6:21 05-Red
DR13 -2.17 dB -19.60 dB 12:22 06-Starless
DR12 -1.19 dB -18.82 dB 4:40 07-The Night Watch
DR13 -4.64 dB -22.23 dB 2:52 08-Book Of Saturday
DR11 -11.96 dB -29.60 dB 1:15 09-Peace - A Theme
DR12 -1.54 dB -14.71 dB 2:45 10-Cat Food
DR13 -1.15 dB -17.58 dB 3:31 11-Groon
DR10 -3.65 dB -20.62 dB 2:15 12-Coda From Larks' Tongues In Aspic, Part I
DR12 -8.47 dB -22.24 dB 2:25 13-Moonchild
DR11 -5.19 dB -22.70 dB 5:36 14-Trio
DR10 -1.46 dB -15.47 dB 9:23 15-In The Court Of The Crimson King

Number of tracks: 15
Official DR value: DR12

Samplerate: 96000 Hz
Channels: 2
Bits per sample: 24
Bitrate: 2801 kbps
Codec: FLAC

Lista plików Show/Hide [Pokaż/Ukryj]
Trackery
Tracker URLSeedówPeerówPobrań
http://tracker.opentrackr.org:1337/announce281553
udp://tracker.openbittorrent.com:80/announce281553
udp://tracker.torrent.eu.org:451/announce21831
udp://exodus.desync.com:6969/announce17928
udp://explodie.org:6969/announce1380
udp://tracker.leechers-paradise.org:6969/announce121124
udp://denis.stalker.upeer.me:6969/announce000
udp://tracker.coppersurfer.tk:6969/announce000
udp://tracker.internetwarriors.net:1337/announce000
Podobne Pliki

Komentarze

Brak komentarzy!

Dodawanie komentarza
Komentujesz torrenta:
King Crimson - A Young Person's Guide To King Crimson (1975) (2 LP 24-96) [FLAC]

NAJCZĘŚCIEJ POBIERANE