Kategorie
Ranking
RSS
Programy

Statystyki
Użytkowników:
Zarejestrowanych wczoraj:
Zarejestrowanych dzisiaj:
Torrentów:
Dodanych wczoraj:
Dodanych dzisiaj:
Warezów:
Dodanych wczoraj:
Dodanych dzisiaj:
134,975
44
4
144,086
76
24
11,806
34
0
Ostatnie 30
Popularne
w Styczniu
==Torrent==
Kategoria: Muzyka » Rock


Dodał: Beatrix
Data dodania:
2020-12-04 23:59:09
Rozmiar: 749.39 MB
Seedów: 125
Peerów: 44
Pobrano: 5 razy
Kondycja:






Frank Zappa - Over-Nite Sensation (1973) (PBTHAL LP 24-96) [FLAC]



Frank Zappa
Over-Nite Sensation (1973)
FLAC LOSSLESS 24bit-96kHz
PBTHAL Vinyl Rip


allmusic.com...

Love it or hate it, Over-Nite Sensation was a watershed album for Frank Zappa, the point where his post-'60s aesthetic was truly established; it became his second gold album, and most of these songs became staples of his live shows for years to come. Whereas the Flo and Eddie years were dominated by rambling, off-color comedy routines, Over-Nite Sensation tightened up the song structures and tucked sexual and social humor into melodic, technically accomplished heavy guitar rock with jazzy chord changes and funky rhythms; meanwhile, Zappa's growling new post-accident voice takes over the storytelling. While the music is some of Zappa's most accessible, the apparent callousness and/or stunning sexual explicitness of "Camarillo Brillo," "Dirty Love," and especially "Dinah-Moe Humm" leave him on shaky aesthetic ground. Zappa often protested that the charges of misogyny leveled at such material missed out on the implicit satire of male stupidity, and also confirmed intellectuals' self-conscious reticence about indulging in dumb fun; however, the glee in his voice as he spins his adolescent fantasies can undermine his point. Indeed, that enjoyment, also evident in the silly wordplay, suggests that Zappa is throwing his juvenile crassness in the face of critical expectation, asserting his right to follow his muse even if it leads him into blatant stupidity (ironic or otherwise). One can read this motif into the absurd shaggy-dog story of a dental floss rancher in "Montana," the album's indisputable highlight, which features amazing, uncredited vocal backing from Tina Turner and the Ikettes. As with much of Zappa's best '70s and '80s material, Over-Nite Sensation could be perceived as ideologically problematic (if you haven't got the constitution for FZ's humor), but musically, it's terrific.
Collapse ↑


foobar2000 1.4.3 / Dynamic Range Meter 1.1.1
log date: 2020-12-03 18:20:52

--------------------------------------------------------------------------------
Analyzed: The Mothers Of Invention / Over-Nite Sensation
--------------------------------------------------------------------------------

DR Peak RMS Duration Track
--------------------------------------------------------------------------------



DR12 -0.70 dB -15.68 dB 4:01 01-Camarillo Brillo
DR11 -3.03 dB -17.56 dB 3:36 02-I'm The Slime
DR12 -1.83 dB -16.14 dB 2:59 03-Dirty Love
DR11 -2.73 dB -15.18 dB 6:16 04-Fifty-Fifty
DR12 -1.08 dB -15.32 dB 5:12 05-Zomby Woof
DR12 -2.57 dB -16.94 dB 6:05 06-Dinah-Moe Humm
DR13 -2.67 dB -18.80 dB 6:39 07-Montana

Number of tracks: 7
Official DR value: DR12

Samplerate: 96000 Hz
Channels: 2
Bits per sample: 24
Bitrate: 2835 kbps
Codec: FLAC

Lista plików Show/Hide [Pokaż/Ukryj]
Trackery
Tracker URLSeedówPeerówPobrań
http://tracker.opentrackr.org:1337/announce3813222
udp://tracker.openbittorrent.com:80/announce3813222
udp://tracker.torrent.eu.org:451/announce176110
udp://explodie.org:6969/announce1670
udp://exodus.desync.com:6969/announce165102
udp://denis.stalker.upeer.me:6969/announce000
udp://tracker.coppersurfer.tk:6969/announce000
udp://tracker.internetwarriors.net:1337/announce000
udp://tracker.leechers-paradise.org:6969/announce000
Podobne Pliki

Komentarze

Brak komentarzy!

Dodawanie komentarza
Komentujesz torrenta:
Frank Zappa - Over-Nite Sensation (1973) (PBTHAL LP 24-96) [FLAC]

NAJCZĘŚCIEJ POBIERANE