Kategorie
Ranking
RSS
Programy

Statystyki
Użytkowników:
Zarejestrowanych wczoraj:
Zarejestrowanych dzisiaj:
Torrentów:
Dodanych wczoraj:
Dodanych dzisiaj:
Warezów:
Dodanych wczoraj:
Dodanych dzisiaj:
145,680
43
3
167,581
122
8
16,946
15
0
Ostatnie 30
Popularne
w Wrzesniu
==Torrent==
Kategoria: BluRay/x264 720p » Animowany


Dodał: rlf
Data dodania:
2021-09-14 21:12:13
Rozmiar: 2.90 GB
Seedów: 98
Peerów: 11
Pobrano: 155 razy
Kondycja:






Mała Wielka Stopa - The Son of Bigfoot *2017* [MULTi] [720p] [WEB-DL] [H.264-RLF] [Dubbing PL]



Reżyseria: Ben Stassen / Jeremy Degruson
Scenariusz: Bob Barlen / Cal Brunker
Gatunek: Animacja / Komedia
Produkcja: Belgia / Francja
Premiera: 26 lipca 2017 (świat)



Nastoletni Adam wyrusza w poszukiwaniu swojego ojca. Podczas swojej wyprawy dowiaduje się, że jest potomkiem Yeti.



Complete name: rlf-bigfoot.2017-multi.720p.mkv
File size: 2.90 GiB
Duration: 1 h 31 min
Overall bit rate: 4 531 kb/s
Writing library: libebml v1.4.2 + libmatroska v1.6.4
Encoder: Ralf

Wideo

Format/Info: Advanced Video Codec
Format profile: High@L3.2
Codec ID: V_MPEG4/ISO/AVC
Bit rate: 4 017 kb/s
Width: 1 728 pixels
Height: 718 pixels
Frame rate: 23,976 (24000/1001) kl/s
Bit depth: 8 bits
Bits/(Pixel*Frame): 0.135
Stream size: 2.58 GiB (89%)

Audio

Format/Info: Audio Coding 3
Commercial name: Dolby Digital
Bit rate: 256 kb/s
Channel(s): 6 channels
Sampling rate: 48,0 kHz
Stream size: 168 MiB (6%) x2
Language: English, Polish

Trailer
Lista plików Show/Hide [Pokaż/Ukryj]
Trackery
Tracker URLSeedówPeerówPobrań
udp://inferno.demonoid.is:3391/announce202147
udp://retracker.netbynet.ru:2710/announce182145
udp://open.stealth.si:80/announce172150
udp://tracker.opentrackr.org:1337/announce172124
udp://tracker.torrent.eu.org:451/announce141106
udp://tracker.openbittorrent.com:80/announce12210
udp://9.rarbg.me:2980/announce000
udp://opentor.org:2710/announce000
udp://tracker.tiny-vps.com:6969/announce000
udp://explodie.org:6969/announce000
Podobne Pliki

Komentarze

Brak komentarzy!

Dodawanie komentarza
Komentujesz torrenta:
Mała Wielka Stopa - The Son of Bigfoot *2017* [MULTi] [720p] [WEB-DL] [H.264-RLF] [Dubbing PL]

NAJCZĘŚCIEJ POBIERANE