Ups! Arka odpłynęła 3D - Ooops! Noah is Gone... *2015* [1080p.3D.Half.Over-Under.DTS 5.1.AC3.BluRay.x264-SONDA] [Dubbing PL] [ENG] [AT-TEAM]
Kategorie
Ranking
RSS
Programy

Statystyki
Użytkowników:
Zarejestrowanych wczoraj:
Zarejestrowanych dzisiaj:
Torrentów:
Dodanych wczoraj:
Dodanych dzisiaj:
Warezów:
Dodanych wczoraj:
Dodanych dzisiaj:
112,315
44
12
219,620
74
47
14,379
2
3
Ostatnie 30
Popularne
w Wrzesniu
==Torrent==
Kategoria: Filmy 3D » Animowany


Dodał: sonda
Data dodania:
2016-01-02 16:49:49
Rozmiar: 9.47 GB
Seedów: 69
Peerów: 36
Pobrano: 45 razy
Kondycja:









Ups! Arka odpłynęła 3D - Ooops! Noah is Gone... *2015* [1080p.3D.Half.Over-Under.DTS 5.1.AC3.BluRay.x264-SONDA] [Dubbing PL] [ENG] [AT-TEAM]

http://i.imgur.com/NlH7aW3.jpg

Film w wersji 3D Over-Under.
Do odtworzenia filmu WYMAGANY odpowiedni sprzęt (TV 3D)
===========================================

gatunek: Animacja,Przygodowy
produkcja: Belgia,Irlandia,Luksemburg,Niemcy
premiera: 1 maja 2015 (Polska) 9 kwietnia 2015 (świat)
reżyseria: Toby Genkel
scenariusz: Richie Conroy,Toby Genkel,Mark Hodkinson,Marteinn Thorisson

http://www.imdb.com/title/tt3411432/

Obsada:

Olaf Lubaszenko ... Dave (polski dubbing)
Bernard Lewandowski ... Fini (polski dubbing)
Małgorzata Foremniak ... Hazel (polski dubbing)
Maja Konkel ... Ida (polski dubbing)
Cezary Żak ... Moby (polski dubbing)
Artur Barciś ... Szałaput (polski dubbing)
Tomasz Borkowski ... Lew (polski dubbing)

Opis:

Nadciąga potop i wkrótce całą Ziemię zaleje woda. Jedynym ratunkiem dla zwierząt jest miejsce na Arce Noego, której kapitanem został wyniosły Król Lew. Niestety, paru nieboraków nie znalazło się na liście upoważniającej do wejścia na pokład i teraz mają… przechlapane. Uroczy stwór o imieniu Fini, przedstawiciel tajemniczego gatunku pluszczaków, wspierany przez trójkę innych pechowców bez biletu wstępu na Arkę, zmaga się z nadciągającą powodzią oraz stadem gryfów-głodomorów, które… mają smaka na pluszczaka.

Storyline:

It's the end of the world. A flood is coming. Luckily for Dave and his son Finny, a couple of clumsy Nestrians, an Ark has been built to save all animals. But as it turns out, Nestrians aren't allowed. Sneaking on board with the involuntary help of Hazel and her daughter Leah, two Grymps, they think they're safe. Until the curious kids fall off the Ark. Now Finny and Leah struggle to survive the flood and hungry predators and attempt to reach the top of a mountain, while Dave and Hazel must put aside their differences, turn the Ark around and save their kids. It's definitely not going to be smooth sailing.

Screenshot:

http://i.imgur.com/cHav9kB.jpg
http://i.imgur.com/QCJttDA.jpg
http://i.imgur.com/VyrzM38.jpg
http://i.imgur.com/iekJFHt.jpg


General
Format : Matroska
Format version : Version 2
File size : 9.47 GiB
Duration : 1h 26mn
Overall bit rate : 15.6 Mbps
Movie name : Ooops.Noah.is.Gone.3D.2015.PL.H-OU.BDRip.1080p Rip by Sonda [AT-Team]
Encoded date : UTC 2016-01-02 14:28:10
Writing application : mkvmerge v5.7.0 ('The Whirlwind') built on Jul 8 2012 20:08:51
Writing library : libebml v1.2.3 + libmatroska v1.3.0

Video
ID : 1
Format : AVC
Format/Info : Advanced Video Codec
Format profile : High@L4.1
Format settings, CABAC : Yes
Format settings, ReFrames : 4 frames
Codec ID : V_MPEG4/ISO/AVC
Duration : 1h 26mn
Bit rate : 13.0 Mbps
Width : 1 920 pixels
Height : 1 080 pixels
Display aspect ratio : 16:9 (1.85:1)
Frame rate mode : Constant
Frame rate : 23.976 fps
Color space : YUV
Chroma subsampling : 4:2:0
Bit depth : 8 bits
Scan type : Progressive
Bits/(Pixel*Frame) : 0.261
Stream size : 7.71 GiB (81%)
Title : Rip by Sonda
Writing library : x264 core 148 r2597 e86f3a1
Encoding settings : cabac=1 / ref=4 / deblock=1:1:1 / rc=2pass
Default : Yes
Forced : No

Audio #1
ID : 2
Format : AC-3
Format/Info : Audio Coding 3
Mode extension : CM (complete main)
Format settings, Endianness : Big
Codec ID : A_AC3
Duration : 1h 26mn
Bit rate mode : Constant
Bit rate : 448 Kbps
Channel count : 6 channels
Channel positions : Front: L C R, Side: L R, LFE
Sampling rate : 48.0 KHz
Bit depth : 16 bits
Compression mode : Lossy
Delay relative to video : 8s 700ms
Stream size : 278 MiB (3%)
Title : AC3 5.1 Dubbing PL
Language : Polish
Default : Yes
Forced : Yes

Audio #2
ID : 3
Format : AC-3
Format/Info : Audio Coding 3
Mode extension : CM (complete main)
Format settings, Endianness : Big
Codec ID : A_AC3
Duration : 1h 26mn
Bit rate mode : Constant
Bit rate : 640 Kbps
Channel count : 6 channels
Channel positions : Front: L C R, Side: L R, LFE
Sampling rate : 48.0 KHz
Bit depth : 16 bits
Compression mode : Lossy
Stream size : 398 MiB (4%)
Title : AC3 5.1
Language : English
Default : No
Forced : No

Audio #3
ID : 4
Format : DTS
Format/Info : Digital Theater Systems
Mode : 16
Format settings, Endianness : Big
Codec ID : A_DTS
Duration : 1h 26mn
Bit rate mode : Constant
Bit rate : 1 509 Kbps
Channel count : 6 channels
Channel positions : Front: L C R, Side: L R, LFE
Sampling rate : 48.0 KHz
Bit depth : 24 bits
Compression mode : Lossy
Stream size : 938 MiB (10%)
Title : DTS 5.1
Language : English
Default : No
Forced : No

Source:
A/V-BDRemux 2D/3D
Dubbing PL - DVD
Thanks - Sonda

Lista plików Show/Hide [Pokaż/Ukryj]
Trackery
Tracker URLSeedówPeerówPobrań
http://www.tlv.cc:7777/announce31437
udp://tracker.glotorrents.com:6969/announce124416
udp://glotorrents.com:6969/announce124416
http://tracker.torrenty.org:6969/announce123922
http://tracker.aletorrenty.pl:2710/announce12774
udp://tracker.aletorrenty.pl:2710/announce12774
http://tracker.filetracker.pl:8089/announce03729
http://tracker.flashtorrents.org:6969/announce02724
udp://9.rarbg.me:2710/announce0268
udp://9.rarbg.com:2710/announce0268
udp://eddie4.nl:6969/announce020
udp://shadowshq.eddie4.nl:6969/announce020
udp://tracker.leechers-paradise.org:6969/announce020
udp://www.eddie4.nl:6969/announce020
udp://coppersurfer.tk:6969/announce000
udp://torrent.gresille.org:80/announce000
udp://open.demonii.com:1337/announce000
http://tracker.pubt.net:2710/announce
udp://open.demonii.com:1337000
Podobne Pliki

Komentarze

Brak komentarzy!

Dodawanie komentarza
Komentujesz torrenta:
Ups! Arka odpłynęła 3D - Ooops! Noah is Gone... *2015* [1080p.3D.Half.Over-Under.DTS 5.1.AC3.BluRay.x264-SONDA] [Dubbing PL] [ENG] [AT-TEAM]

NAJCZĘŚCIEJ POBIERANE